  0
SECTION
  2
HEADER
  9
$ACADVER
  1
AC1015
  9
$ACADMAINTVER
 70
     6
  9
$DWGCODEPAGE
  3
ANSI_932
  9
$INSBASE
 10
0.0
 20
0.0
 30
0.0
  9
$EXTMIN
 10
4390.890279
 20
1684.347941
 30
0.0
  9
$EXTMAX
 10
10080.754863
 20
-1117.986434
 30
0.0
  9
$LIMMIN
 10
0.0
 20
0.0
  9
$LIMMAX
 10
0.0
 20
0.0
  9
$ORTHOMODE
 70
     0
  9
$REGENMODE
 70
     1
  9
$FILLMODE
 70
     1
  9
$QTEXTMODE
 70
     0
  9
$MIRRTEXT
 70
     1
  9
$LTSCALE
 40
1.0
  9
$ATTMODE
 70
     1
  9
$TEXTSIZE
 40
0.2
  9
$TRACEWID
 40
0.05
  9
$TEXTSTYLE
  7
Standard
  9
$CLAYER
  8
0
  9
$CELTYPE
  6
Continuous
  9
$CECOLOR
 62
   256
  9
$CELTSCALE
 40
1.0
  9
$DISPSILH
 70
     0
  9
$DIMSCALE
 40
1.0
  9
$DIMASZ
 40
2.050478
  9
$DIMEXO
 40
0.0
  9
$DIMDLI
 40
0.38
  9
$DIMRND
 40
0.0
  9
$DIMDLE
 40
0.0
  9
$DIMEXE
 40
1.0
  9
$DIMTP
 40
0.0
  9
$DIMTM
 40
0.0
  9
$DIMTXT
 40
3.175
  9
$DIMCEN
 40
0.09
  9
$DIMTSZ
 40
0.0
  9
$DIMTOL
 70
     0
  9
$DIMLIM
 70
     0
  9
$DIMTIH
 70
     0
  9
$DIMTOH
 70
     0
  9
$DIMSE1
 70
     0
  9
$DIMSE2
 70
     0
  9
$DIMTAD
 70
     1
  9
$DIMZIN
 70
     0
  9
$DIMBLK
  1

  9
$DIMASO
 70
     1
  9
$DIMSHO
 70
     1
  9
$DIMPOST
  1

  9
$DIMAPOST
  1

  9
$DIMALT
 70
     0
  9
$DIMALTD
 70
     3
  9
$DIMALTF
 40
25.4
  9
$DIMLFAC
 40
1.0
  9
$DIMTOFL
 70
     0
  9
$DIMTVP
 40
0.0
  9
$DIMTIX
 70
     0
  9
$DIMSOXD
 70
     0
  9
$DIMSAH
 70
     0
  9
$DIMBLK1
  1

  9
$DIMBLK2
  1

  9
$DIMSTYLE
  2
Standard
  9
$DIMCLRD
 70
     5
  9
$DIMCLRE
 70
     5
  9
$DIMCLRT
 70
     5
  9
$DIMTFAC
 40
1.0
  9
$DIMGAP
 40
1.0
  9
$DIMJUST
 70
     0
  9
$DIMSD1
 70
     0
  9
$DIMSD2
 70
     0
  9
$DIMTOLJ
 70
     1
  9
$DIMTZIN
 70
     0
  9
$DIMALTZ
 70
     0
  9
$DIMALTTZ
 70
     0
  9
$DIMUPT
 70
     0
  9
$DIMDEC
 70
     3
  9
$DIMTDEC
 70
     4
  9
$DIMALTU
 70
     2
  9
$DIMALTTD
 70
     2
  9
$DIMTXSTY
  7
Standard
  9
$DIMAUNIT
 70
     0
  9
$DIMADEC
 70
     0
  9
$DIMALTRND
 40
0.0
  9
$DIMAZIN
 70
     0
  9
$DIMDSEP
 70
     0
  9
$DIMATFIT
 70
     3
  9
$DIMFRAC
 70
     0
  9
$DIMLDRBLK
  1

  9
$DIMLUNIT
 70
     2
  9
$DIMLWD
 70
     0
  9
$DIMLWE
 70
     0
  9
$DIMTMOVE
 70
     0
  9
$LUNITS
 70
     2
  9
$LUPREC
 70
     4
  9
$SKETCHINC
 40
0.1
  9
$FILLETRAD
 40
0.0
  9
$AUNITS
 70
     0
  9
$AUPREC
 70
     0
  9
$MENU
  1
acad
  9
$ELEVATION
 40
0.0
  9
$PELEVATION
 40
0.0
  9
$THICKNESS
 40
0.0
  9
$LIMCHECK
 70
     0
  9
$CHAMFERA
 40
0.0
  9
$CHAMFERB
 40
0.0
  9
$CHAMFERC
 40
0.0
  9
$CHAMFERD
 40
0.0
  9
$SKPOLY
 70
     0
  9
$TDCREATE
 40
2460271.369872685
  9
$TDUCREATE
 40
0.000000000
  9
$TDUPDATE
 40
2460271.369872685
  9
$TDUUPDATE
 40
0.000000000
  9
$TDINDWG
 40
0.0000000000
  9
$TDUSRTIMER
 40
0.0000000000
  9
$USRTIMER
 70
     1
  9
$ANGBASE
 50
0.0
  9
$ANGDIR
 70
     0
  9
$PDMODE
 70
     0
  9
$PDSIZE
 40
0.0
  9
$PLINEWID
 40
0.0
  9
$SPLFRAME
 70
     0
  9
$SPLINETYPE
 70
     6
  9
$SPLINESEGS
 70
     8
  9
$HANDSEED
  5
47A
  9
$SURFTAB1
 70
     6
  9
$SURFTAB2
 70
     6
  9
$SURFTYPE
 70
     6
  9
$SURFU
 70
     6
  9
$SURFV
 70
     6
  9
$UCSBASE
  2

  9
$UCSNAME
  2

  9
$UCSORG
 10
0.0
 20
0.0
 30
0.0
  9
$UCSXDIR
 10
1.0
 20
0.0
 30
0.0
  9
$UCSYDIR
 10
0.0
 20
1.0
 30
0.0
  9
$UCSORTHOREF
  2

  9
$UCSORTHOVIEW
 70
     0
  9
$UCSORGTOP
 10
0.0
 20
0.0
 30
0.0
  9
$UCSORGBOTTOM
 10
0.0
 20
0.0
 30
0.0
  9
$UCSORGLEFT
 10
0.0
 20
0.0
 30
0.0
  9
$UCSORGRIGHT
 10
0.0
 20
0.0
 30
0.0
  9
$UCSORGFRONT
 10
0.0
 20
0.0
 30
0.0
  9
$UCSORGBACK
 10
0.0
 20
0.0
 30
0.0
  9
$PUCSBASE
  2

  9
$PUCSNAME
  2

  9
$PUCSORG
 10
0.0
 20
0.0
 30
0.0
  9
$PUCSXDIR
 10
1.0
 20
0.0
 30
0.0
  9
$PUCSYDIR
 10
0.0
 20
1.0
 30
0.0
  9
$PUCSORTHOREF
  2

  9
$PUCSORTHOVIEW
 70
     0
  9
$PUCSORGTOP
 10
0.0
 20
0.0
 30
0.0
  9
$PUCSORGBOTTOM
 10
0.0
 20
0.0
 30
0.0
  9
$PUCSORGLEFT
 10
0.0
 20
0.0
 30
0.0
  9
$PUCSORGRIGHT
 10
0.0
 20
0.0
 30
0.0
  9
$PUCSORGFRONT
 10
0.0
 20
0.0
 30
0.0
  9
$PUCSORGBACK
 10
0.0
 20
0.0
 30
0.0
  9
$USERI1
 70
     0
  9
$USERI2
 70
     0
  9
$USERI3
 70
     0
  9
$USERI4
 70
     0
  9
$USERI5
 70
     0
  9
$USERR1
 40
0.0
  9
$USERR2
 40
0.0
  9
$USERR3
 40
0.0
  9
$USERR4
 40
0.0
  9
$USERR5
 40
0.0
  9
$WORLDVIEW
 70
     1
  9
$SHADEDGE
 70
     3
  9
$SHADEDIF
 70
    70
  9
$TILEMODE
 70
     1
  9
$MAXACTVP
 70
    16
  9
$PINSBASE
 10
0.0
 20
0.0
 30
0.0
  9
$PLIMCHECK
 70
     0
  9
$PEXTMIN
 10
1.000000E+20
 20
1.000000E+20
 30
1.000000E+20
  9
$PEXTMAX
 10
-1.000000E+20
 20
-1.000000E+20
 30
-1.000000E+20
  9
$PLIMMIN
 10
0.0
 20
0.0
  9
$PLIMMAX
 10
12.0
 20
9.0
  9
$UNITMODE
 70
     0
  9
$VISRETAIN
 70
     0
  9
$PLINEGEN
 70
     1
  9
$PSLTSCALE
 70
     0
  9
$TREEDEPTH
 70
  3020
  9
$CMLSTYLE
  2
Standard
  9
$CMLJUST
 70
     0
  9
$CMLSCALE
 40
1.0
  9
$PROXYGRAPHICS
 70
     0
  9
$MEASUREMENT
 70
     0
  9
$CELWEIGHT
370
     0
  9
$ENDCAPS
280
     0
  9
$JOINSTYLE
280
     0
  9
$LWDISPLAY
290
     0
  9
$INSUNITS
 70
     0
  9
$HYPERLINKBASE
  1

  9
$XEDIT
290
     1
  9
$CEPSNTYPE
380
     0
  9
$PSTYLEMODE
290
     1
  9
$FINGERPRINTGUID
  2

  9
$VERSIONGUID
  2

  9
$EXTNAMES
290
     1
  9
$PSVPSCALE
 40
0.0
  0
ENDSEC
  0
SECTION
  2
CLASSES
  0
CLASS
  1
LWPOLYLINE
  2
AcDbPolyline
  3
AutoCAD 2000
 90
    32768
280
     0
281
     1
  0
CLASS
  1
IMAGE
  2
AcDbRasterImage
  3
ISM
 90
    32895
280
     0
281
     1
  0
CLASS
  1
OLE2FRAME
  2
AcDbOle2Frame
  3
AutoCAD 2000
 90
    32768
280
     0
281
     1
  0
CLASS
  1
HATCH
  2
AcDbHatch
  3
AutoCAD 2000
 90
    32768
280
     0
281
     1
  0
CLASS
  1
DICTIONARYVAR
  2
AcDbDictionaryVar
  3
AutoCAD 2000
 90
    32768
280
     0
281
     0
  0
CLASS
  1
RASTERVARIABLES
  2
AcDbRasterVariables
  3
ISM
 90
    32768
280
     0
281
     0
  0
CLASS
  1
IMAGEDEF
  2
AcDbRasterImageDef
  3
ISM
 90
    32768
280
     0
281
     0
  0
CLASS
  1
IMAGEDEF_REACTOR
  2
AcDbRasterImageDefReactor
  3
ISM
 90
    32769
280
     0
281
     0
  0
CLASS
  1
IDBUFFER
  2
AcDbIdBuffer
  3
AutoCAD 2000
 90
    32768
280
     0
281
     0
  0
CLASS
  1
SPATIAL_FILTER
  2
AcDbSpatialFilter
  3
AutoCAD 2000
 90
    32768
280
     0
281
     0
  0
CLASS
  1
XRECORD
  2
AcDbXrecord
  3
AutoCAD 2000
 90
    32768
280
     0
281
     0
  0
CLASS
  1
SORTENTSTABLE
  2
AcDbSortentsTable
  3
AutoCAD 2000
 90
    32768
280
     0
281
     0
  0
CLASS
  1
LAYER_INDEX
  2
AcDbLayerIndex
  3
AutoCAD 2000
 90
    32768
280
     0
281
     0
  0
CLASS
  1
SPATIAL_INDEX
  2
AcDbSpatialIndex
  3
AutoCAD 2000
 90
    32768
280
     0
281
     0
  0
CLASS
  1
OBJECT_PTR
  2
CAseDLPNTableRecord
  3
"ASE-LPNTableRecord"
 90
    32769
280
     0
281
     0
  0
CLASS
  1
LAYOUT
  2
AcDbLayout
  3
AutoCAD 2000
 90
        0
280
     0
281
     0
  0
CLASS
  1
PLOTSETTINGS
  2
AcDbPlotSettings
  3
AutoCAD 2000
 90
    32768
280
     0
281
     0
  0
CLASS
  1
ACDBDICTIONARYWDFLT
  2
AcDbDictionaryWithDefault
  3
AutoCAD 2000
 90
        0
280
     0
281
     0
  0
CLASS
  1
ACDBPLACEHOLDER
  2
AcDbPlaceHolder
  3
AutoCAD 2000
 90
        0
280
     0
281
     0
  0
CLASS
  1
VBA_PROJECT
  2
AcDbVbaProject
  3
acadvba
 90
    32768
280
     0
281
     0
  0
CLASS
  1
WIPEOUT
  2
AcDbWipeout
  3
WipeOut|AutoCAD Express Tool|expresstools@autodesk.com
 90
    32895
280
     0
281
     1
  0
CLASS
  1
WIPEOUTVARIABLES
  2
AcDbWipeoutVariables
  3
WipeOut|AutoCAD Express Tool|expresstools@autodesk.com
 90
        0
280
     0
281
     0
  0
CLASS
  1
RTEXT
  2
RText
  3
RText|AutoCAD Express Tool|expresstools@autodesk.com
 90
    32768
280
     0
281
     1
  0
CLASS
  1
ARCALIGNEDTEXT
  2
AcDbArcAlignedText
  3
ATEXT|AutoCAD Express Tool|expresstools@autodesk.com
 90
    32768
280
     0
281
     1
  0
ENDSEC
  0
SECTION
  2
TABLES
  0
TABLE
  2
VPORT
  5
7
100
AcDbSymbolTable
 70
     1
  0
VPORT
  5
15
100
AcDbSymbolTableRecord
100
AcDbViewportTableRecord
  2
*ACTIVE
 70
     0
 10
0.0
 20
0.0
 11
1.0
 21
1.0
 12
6.591288
 22
4.579184
 13
0.0
 23
0.0
 14
1.0
 24
1.0
 15
0.0
 25
0.0
 16
0.0
 26
0.0
 36
1.0
 17
0.0
 27
0.0
 37
0.0
 40
9.158369
 41
0.688564
 42
50.0
 43
0.0
 44
0.0
 50
0.0
 51
0.0
 71
     0
 72
   100
 73
     1
 74
     1
 75
     0
 76
     0
 77
     0
 78
     0
281
     0
 65
     0
110
0.0
120
0.0
130
0.0
111
1.0
121
0.0
131
0.0
112
0.0
122
1.0
132
0.0
345
0
346
0
 79
     0
146
0.0
  0
ENDTAB
  0
TABLE
  2
LTYPE
  5
4
100
AcDbSymbolTable
 70
    13
  0
LTYPE
  5
11
100
AcDbSymbolTableRecord
100
AcDbLinetypeTableRecord
  2
ByBlock
 70
    64
  3

 72
    65
 73
     0
 40
0.0
  0
LTYPE
  5
12
100
AcDbSymbolTableRecord
100
AcDbLinetypeTableRecord
  2
ByLayer
 70
    64
  3

 72
    65
 73
     0
 40
0.0
  0
LTYPE
  5
13
100
AcDbSymbolTableRecord
100
AcDbLinetypeTableRecord
  2
Continuous
 70
    64
  3
Solid line
 72
    65
 73
     0
 40
0.0
  0
LTYPE
  5
24
100
AcDbSymbolTableRecord
100
AcDbLinetypeTableRecord
  2
DOT
 70
    64
  3

 72
    65
 73
     2
 40
1.0
 49
0.0
 74
     0
 49
-1.0
 74
     0
  0
LTYPE
  5
25
100
AcDbSymbolTableRecord
100
AcDbLinetypeTableRecord
  2
DASHEDX2
 70
    64
  3

 72
    65
 73
     2
 40
4.0
 49
3.0
 74
     0
 49
-1.0
 74
     0
  0
LTYPE
  5
26
100
AcDbSymbolTableRecord
100
AcDbLinetypeTableRecord
  2
DASHED
 70
    64
  3

 72
    65
 73
     2
 40
3.0
 49
2.0
 74
     0
 49
-1.0
 74
     0
  0
LTYPE
  5
27
100
AcDbSymbolTableRecord
100
AcDbLinetypeTableRecord
  2
DASHED2
 70
    64
  3

 72
    65
 73
     2
 40
2.0
 49
1.0
 74
     0
 49
-1.0
 74
     0
  0
LTYPE
  5
28
100
AcDbSymbolTableRecord
100
AcDbLinetypeTableRecord
  2
CENTERX2
 70
    64
  3

 72
    65
 73
     4
 40
43.0
 49
40.0
 74
     0
 49
-1.0
 74
     0
 49
1.0
 74
     0
 49
-1.0
 74
     0
  0
LTYPE
  5
29
100
AcDbSymbolTableRecord
100
AcDbLinetypeTableRecord
  2
CENTER
 70
    64
  3

 72
    65
 73
     4
 40
33.0
 49
30.0
 74
     0
 49
-1.0
 74
     0
 49
1.0
 74
     0
 49
-1.0
 74
     0
  0
LTYPE
  5
2A
100
AcDbSymbolTableRecord
100
AcDbLinetypeTableRecord
  2
CENTER2
 70
    64
  3

 72
    65
 73
     4
 40
23.0
 49
20.0
 74
     0
 49
-1.0
 74
     0
 49
1.0
 74
     0
 49
-1.0
 74
     0
  0
LTYPE
  5
2B
100
AcDbSymbolTableRecord
100
AcDbLinetypeTableRecord
  2
PHANTOMX2
 70
    64
  3

 72
    65
 73
     6
 40
45.0
 49
40.0
 74
     0
 49
-1.0
 74
     0
 49
1.0
 74
     0
 49
-1.0
 74
     0
 49
1.0
 74
     0
 49
-1.0
 74
     0
  0
LTYPE
  5
2C
100
AcDbSymbolTableRecord
100
AcDbLinetypeTableRecord
  2
PHANTOM
 70
    64
  3

 72
    65
 73
     6
 40
35.0
 49
30.0
 74
     0
 49
-1.0
 74
     0
 49
1.0
 74
     0
 49
-1.0
 74
     0
 49
1.0
 74
     0
 49
-1.0
 74
     0
  0
LTYPE
  5
2D
100
AcDbSymbolTableRecord
100
AcDbLinetypeTableRecord
  2
PHANTOM2
 70
    64
  3

 72
    65
 73
     6
 40
25.0
 49
20.0
 74
     0
 49
-1.0
 74
     0
 49
1.0
 74
     0
 49
-1.0
 74
     0
 49
1.0
 74
     0
 49
-1.0
 74
     0
  0
ENDTAB
  0
TABLE
  2
LAYER
  5
2
100
AcDbSymbolTable
 70
    27
  0
LAYER
  5
14
100
AcDbSymbolTableRecord
100
AcDbLayerTableRecord
  2
0
 70
     0
 62
     7
  6
Continuous
290
     1
370
    -3
390
1D
  0
LAYER
  5
2E
100
AcDbSymbolTableRecord
100
AcDbLayerTableRecord
  2
DEFPOINTS
 70
     0
 62
     7
  6
Continuous
290
     0
370
    -3
390
1F
  0
LAYER
  5
2F
100
AcDbSymbolTableRecord
100
AcDbLayerTableRecord
  2
ﾚｲﾔｰ1
 70
     0
 62
     7
  6
Continuous
290
     1
370
    -3
390
1F
  0
LAYER
  5
30
100
AcDbSymbolTableRecord
100
AcDbLayerTableRecord
  2
寸法線
 70
     0
 62
     7
  6
Continuous
290
     1
370
    -3
390
1F
  0
LAYER
  5
31
100
AcDbSymbolTableRecord
100
AcDbLayerTableRecord
  2
補助線
 70
     0
 62
     7
  6
Continuous
290
     1
370
    -3
390
1F
  0
LAYER
  5
32
100
AcDbSymbolTableRecord
100
AcDbLayerTableRecord
  2
unassigned
 70
     0
 62
     7
  6
Continuous
290
     1
370
    -3
390
1F
  0
LAYER
  5
33
100
AcDbSymbolTableRecord
100
AcDbLayerTableRecord
  2
HASEN
 70
     0
 62
     7
  6
Continuous
290
     1
370
    -3
390
1F
  0
LAYER
  5
34
100
AcDbSymbolTableRecord
100
AcDbLayerTableRecord
  2
ディスプレイ
 70
     0
 62
     7
  6
Continuous
290
     1
370
    -3
390
1F
  0
LAYER
  5
35
100
AcDbSymbolTableRecord
100
AcDbLayerTableRecord
  2
kijun
 70
     0
 62
     7
  6
Continuous
290
     1
370
    -3
390
1F
  0
LAYER
  5
36
100
AcDbSymbolTableRecord
100
AcDbLayerTableRecord
  2
NATTO
 70
     0
 62
     7
  6
Continuous
290
     1
370
    -3
390
1F
  0
LAYER
  5
37
100
AcDbSymbolTableRecord
100
AcDbLayerTableRecord
  2
BOLT
 70
     0
 62
     7
  6
Continuous
290
     1
370
    -3
390
1F
  0
LAYER
  5
38
100
AcDbSymbolTableRecord
100
AcDbLayerTableRecord
  2
BE-SU
 70
     0
 62
     7
  6
Continuous
290
     1
370
    -3
390
1F
  0
LAYER
  5
39
100
AcDbSymbolTableRecord
100
AcDbLayerTableRecord
  2
KANAGU
 70
     0
 62
     7
  6
Continuous
290
     1
370
    -3
390
1F
  0
LAYER
  5
3A
100
AcDbSymbolTableRecord
100
AcDbLayerTableRecord
  2
WINDOW
 70
     0
 62
     7
  6
Continuous
290
     1
370
    -3
390
1F
  0
LAYER
  5
3B
100
AcDbSymbolTableRecord
100
AcDbLayerTableRecord
  2
TEXT
 70
     0
 62
     7
  6
Continuous
290
     1
370
    -3
390
1F
  0
LAYER
  5
3C
100
AcDbSymbolTableRecord
100
AcDbLayerTableRecord
  2
TEMPORARY
 70
     0
 62
     7
  6
Continuous
290
     1
370
    -3
390
1F
  0
LAYER
  5
3D
100
AcDbSymbolTableRecord
100
AcDbLayerTableRecord
  2
SCALE
 70
     0
 62
     7
  6
Continuous
290
     1
370
    -3
390
1F
  0
LAYER
  5
3E
100
AcDbSymbolTableRecord
100
AcDbLayerTableRecord
  2
IMAGE
 70
     0
 62
     7
  6
Continuous
290
     1
370
    -3
390
1F
  0
LAYER
  5
3F
100
AcDbSymbolTableRecord
100
AcDbLayerTableRecord
  2
HIDDEN
 70
     0
 62
     7
  6
Continuous
290
     1
370
    -3
390
1F
  0
LAYER
  5
40
100
AcDbSymbolTableRecord
100
AcDbLayerTableRecord
  2
FRAME
 70
     0
 62
     7
  6
Continuous
290
     1
370
    -3
390
1F
  0
LAYER
  5
41
100
AcDbSymbolTableRecord
100
AcDbLayerTableRecord
  2
ERROR
 70
     0
 62
     7
  6
Continuous
290
     1
370
    -3
390
1F
  0
LAYER
  5
42
100
AcDbSymbolTableRecord
100
AcDbLayerTableRecord
  2
DEFPOINTS_1
 70
     0
 62
     7
  6
Continuous
290
     1
370
    -3
390
1F
  0
LAYER
  5
43
100
AcDbSymbolTableRecord
100
AcDbLayerTableRecord
  2
CENTER
 70
     0
 62
     7
  6
Continuous
290
     1
370
    -3
390
1F
  0
LAYER
  5
44
100
AcDbSymbolTableRecord
100
AcDbLayerTableRecord
  2
ASSIST
 70
     0
 62
     7
  6
Continuous
290
     1
370
    -3
390
1F
  0
LAYER
  5
45
100
AcDbSymbolTableRecord
100
AcDbLayerTableRecord
  2
1
 70
     0
 62
     7
  6
Continuous
290
     1
370
    -3
390
1F
  0
LAYER
  5
46
100
AcDbSymbolTableRecord
100
AcDbLayerTableRecord
  2
0_1
 70
     0
 62
     7
  6
Continuous
290
     1
370
    -3
390
1F
  0
LAYER
  5
47
100
AcDbSymbolTableRecord
100
AcDbLayerTableRecord
  2
レイヤー 1
 70
     0
 62
     7
  6
Continuous
290
     1
370
    -3
390
1F
  0
ENDTAB
  0
TABLE
  2
STYLE
  5
3
100
AcDbSymbolTable
 70
     2
  0
STYLE
  5
17
100
AcDbSymbolTableRecord
100
AcDbTextStyleTableRecord
  2
Standard
 70
     0
 40
0.0
 41
1.0
 50
0.0
 71
     0
 42
0.35
  3
txt
  4

  0
STYLE
  5
59
100
AcDbSymbolTableRecord
100
AcDbTextStyleTableRecord
  2
Style1
 70
     0
 40
0.0
 41
1.0
 50
0.0
 71
     0
 42
0.35
  3
ＭＳ ゴシック
  4

  0
ENDTAB
  0
TABLE
  2
VIEW
  5
5
100
AcDbSymbolTable
 70
     0
  0
ENDTAB
  0
TABLE
  2
UCS
  5
6
100
AcDbSymbolTable
 70
     0
  0
ENDTAB
  0
TABLE
  2
APPID
  5
8
100
AcDbSymbolTable
 70
     1
  0
APPID
  5
16
100
AcDbSymbolTableRecord
100
AcDbRegAppTableRecord
  2
ACAD
 70
     0
  0
ENDTAB
  0
TABLE
  2
DIMSTYLE
  5
9
100
AcDbSymbolTable
 70
     2
100
AcDbDimStyleTable
 71
     0
  0
DIMSTYLE
105
18
100
AcDbSymbolTableRecord
100
AcDbDimStyleTableRecord
  2
Standard
 70
     0
  3

  4

 40
1.0
 41
2.050478
 42
0.0
 43
0.38
 44
1.0
 45
0.0
 46
0.0
 47
0.0
 48
0.0
 71
     0
 72
     0
 73
     0
 74
     0
 75
     0
 76
     0
 77
     1
 78
     0
 79
     0
140
3.175
141
0.09
142
0.0
143
25.4
144
1.0
145
0.0
146
1.0
147
1.0
148
0.0
170
     0
171
     3
172
     0
173
     0
174
     0
175
     0
176
     5
177
     5
178
     5
179
     0
271
     3
272
     4
273
     2
274
     2
275
     0
276
     0
277
     2
278
    46
279
     0
280
     0
281
     0
282
     0
283
     1
284
     0
285
     0
286
     0
288
     0
340
17
341
0
342
0
343
0
344
0
371
    -2
372
    -2
  0
DIMSTYLE
105
1C5
100
AcDbSymbolTableRecord
100
AcDbDimStyleTableRecord
  2
DS1
 70
     0
  3

  4

 40
1.0
 41
2.050478
 42
0.0
 43
0.38
 44
1.0
 45
0.0
 46
0.0
 47
0.0
 48
0.0
 71
     0
 72
     0
 73
     0
 74
     0
 75
     0
 76
     0
 77
     1
 78
     8
 79
     0
140
25.4
141
0.09
142
0.0
143
25.4
144
1.0
145
0.0
146
1.0
147
1.0
148
0.0
170
     0
171
     3
172
     0
173
     0
174
     0
175
     0
176
     5
177
     5
178
     5
179
     0
271
     3
272
     4
273
     2
274
     2
275
     0
276
     0
277
     2
278
    46
279
     0
280
     0
281
     0
282
     0
283
     1
284
     0
285
     0
286
     0
288
     0
340
17
341
0
342
0
343
0
344
0
371
    -2
372
    -2
  0
ENDTAB
  0
TABLE
  2
BLOCK_RECORD
  5
1
100
AcDbSymbolTable
 70
    22
  0
BLOCK_RECORD
  5
A
100
AcDbSymbolTableRecord
100
AcDbBlockTableRecord
  2
*MODEL_SPACE
340
20
  0
BLOCK_RECORD
  5
B
100
AcDbSymbolTableRecord
100
AcDbBlockTableRecord
  2
*PAPER_SPACE
340
21
  0
BLOCK_RECORD
  5
9A
100
AcDbSymbolTableRecord
100
AcDbBlockTableRecord
  2
C0
340
0
102
{BLKREFS
331
A3
102
}
  0
BLOCK_RECORD
  5
B3
100
AcDbSymbolTableRecord
100
AcDbBlockTableRecord
  2
C1
340
0
102
{BLKREFS
331
BA
102
}
  0
BLOCK_RECORD
  5
BB
100
AcDbSymbolTableRecord
100
AcDbBlockTableRecord
  2
C2
340
0
102
{BLKREFS
331
C2
102
}
  0
BLOCK_RECORD
  5
152
100
AcDbSymbolTableRecord
100
AcDbBlockTableRecord
  2
C3
340
0
102
{BLKREFS
331
159
102
}
  0
BLOCK_RECORD
  5
1B8
100
AcDbSymbolTableRecord
100
AcDbBlockTableRecord
  2
*D4
340
0
  0
BLOCK_RECORD
  5
1DD
100
AcDbSymbolTableRecord
100
AcDbBlockTableRecord
  2
*D5
340
0
  0
BLOCK_RECORD
  5
270
100
AcDbSymbolTableRecord
100
AcDbBlockTableRecord
  2
*D6
340
0
  0
BLOCK_RECORD
  5
2A6
100
AcDbSymbolTableRecord
100
AcDbBlockTableRecord
  2
C4
340
0
102
{BLKREFS
331
2C3
102
}
  0
BLOCK_RECORD
  5
2AC
100
AcDbSymbolTableRecord
100
AcDbBlockTableRecord
  2
C5
340
0
102
{BLKREFS
331
2B3
102
}
  0
BLOCK_RECORD
  5
2B4
100
AcDbSymbolTableRecord
100
AcDbBlockTableRecord
  2
C6
340
0
102
{BLKREFS
331
2BB
102
}
  0
BLOCK_RECORD
  5
2F3
100
AcDbSymbolTableRecord
100
AcDbBlockTableRecord
  2
C7
340
0
102
{BLKREFS
331
2FA
102
}
  0
BLOCK_RECORD
  5
2FE
100
AcDbSymbolTableRecord
100
AcDbBlockTableRecord
  2
C8
340
0
102
{BLKREFS
331
305
102
}
  0
BLOCK_RECORD
  5
37A
100
AcDbSymbolTableRecord
100
AcDbBlockTableRecord
  2
C9
340
0
102
{BLKREFS
331
381
102
}
  0
BLOCK_RECORD
  5
39B
100
AcDbSymbolTableRecord
100
AcDbBlockTableRecord
  2
*D13
340
0
  0
BLOCK_RECORD
  5
3E5
100
AcDbSymbolTableRecord
100
AcDbBlockTableRecord
  2
C10
340
0
102
{BLKREFS
331
3EC
102
}
  0
BLOCK_RECORD
  5
3FD
100
AcDbSymbolTableRecord
100
AcDbBlockTableRecord
  2
C11
340
0
102
{BLKREFS
331
404
102
}
  0
BLOCK_RECORD
  5
40A
100
AcDbSymbolTableRecord
100
AcDbBlockTableRecord
  2
C12
340
0
102
{BLKREFS
331
427
102
}
  0
BLOCK_RECORD
  5
410
100
AcDbSymbolTableRecord
100
AcDbBlockTableRecord
  2
C13
340
0
102
{BLKREFS
331
417
102
}
  0
BLOCK_RECORD
  5
418
100
AcDbSymbolTableRecord
100
AcDbBlockTableRecord
  2
C14
340
0
102
{BLKREFS
331
41F
102
}
  0
BLOCK_RECORD
  5
441
100
AcDbSymbolTableRecord
100
AcDbBlockTableRecord
  2
C15
340
0
102
{BLKREFS
331
448
102
}
  0
BLOCK_RECORD
  5
44D
100
AcDbSymbolTableRecord
100
AcDbBlockTableRecord
  2
*D20
340
0
  0
BLOCK_RECORD
  5
46C
100
AcDbSymbolTableRecord
100
AcDbBlockTableRecord
  2
*D21
340
0
  0
ENDTAB
  0
ENDSEC
  0
SECTION
  2
BLOCKS
  0
BLOCK
  5
D
100
AcDbEntity
  8
0
100
AcDbBlockBegin
  2
*MODEL_SPACE
 70
     0
 10
0.0
 20
0.0
 30
0.0
  3
*MODEL_SPACE
  1

  0
ENDBLK
  5
E
100
AcDbEntity
  8
0
100
AcDbBlockEnd
  0
BLOCK
  5
F
100
AcDbEntity
 67
     1
  8
0
100
AcDbBlockBegin
  2
*PAPER_SPACE
 70
     0
 10
0.0
 20
0.0
 30
0.0
  3
*PAPER_SPACE
  1

  0
ENDBLK
  5
10
100
AcDbEntity
 67
     1
  8
0
100
AcDbBlockEnd
  0
BLOCK
  5
9B
100
AcDbEntity
  8
0
100
AcDbBlockBegin
  2
C0
 70
    64
 10
0.0
 20
0.0
 30
0.0
  3
C0
  1

  0
ELLIPSE
  5
9C
100
AcDbEntity
  8
unassigned
370
    18
  6
Continuous
 62
     7
100
AcDbEllipse
 10
8047.013522
 20
788.916927
 30
0.0
 11
1.9021124877862079
 21
-0.618035665516572
 31
0.0
210
0.0
220
0.0
230
-1.0
 40
1.0
 41
0.0
 42
1.3694384059964413
  0
LINE
  5
9D
100
AcDbEntity
  8
unassigned
370
    18
  6
Continuous
 62
     7
100
AcDbLine
 10
8046.788395
 20
786.929638
 30
0.0
 11
8045.81029
 21
787.155409
 31
0.0
  0
LINE
  5
9E
100
AcDbEntity
  8
unassigned
370
    18
  6
Continuous
 62
     7
100
AcDbLine
 10
8045.81029
 20
787.155409
 30
0.0
 11
8047.973415
 21
793.812803
 31
0.0
  0
LINE
  5
9F
100
AcDbEntity
  8
unassigned
370
    18
  6
Continuous
 62
     7
100
AcDbLine
 10
8047.973415
 20
793.812803
 30
0.0
 11
8048.897423
 21
793.420538
 31
0.0
  0
ELLIPSE
  5
A0
100
AcDbEntity
  8
unassigned
370
    18
  6
Continuous
 62
     7
100
AcDbEllipse
 10
8047.911451
 20
791.680463
 30
0.0
 11
0.9859713068996356
 21
1.740074878277251
 31
0.0
210
0.0
220
0.0
230
-1.0
 40
1.0
 41
0.0
 42
1.3694384059967193
  0
LINE
  5
A1
100
AcDbEntity
  8
unassigned
370
    18
  6
Continuous
 62
     7
100
AcDbLine
 10
8049.813564
 20
791.062427
 30
0.0
 11
8048.915634
 21
788.298892
 31
0.0
  0
ENDBLK
  5
A2
100
AcDbEntity
  8
0
100
AcDbBlockEnd
  0
BLOCK
  5
B4
100
AcDbEntity
  8
0
100
AcDbBlockBegin
  2
C1
 70
    64
 10
0.0
 20
0.0
 30
0.0
  3
C1
  1

  0
ELLIPSE
  5
B5
100
AcDbEntity
  8
ﾚｲﾔｰ1
370
    18
  6
Continuous
 62
     7
100
AcDbEllipse
 10
8039.12904
 20
450.600911
 30
0.0
 11
7.5683284363907379
 21
-5.7472590735348392
 31
0.0
210
0.0
220
0.0
230
-1.0
 40
1.0
 41
-1.5707963267948966
 42
-0.462687928258815
  0
LINE
  5
B6
100
AcDbEntity
  8
ﾚｲﾔｰ1
370
    18
  6
Continuous
 62
     7
100
AcDbLine
 10
8048.057563
 20
448.678616
 30
0.0
 11
8048.466922
 21
448.836103
 31
0.0
  0
LINE
  5
B7
100
AcDbEntity
  8
ﾚｲﾔｰ1
370
    18
  6
Continuous
 62
     7
100
AcDbLine
 10
8044.466941
 20
458.011752
 30
0.0
 11
8044.876299
 21
458.169239
 31
0.0
  0
LINE
  5
B8
100
AcDbEntity
  8
ﾚｲﾔｰ1
370
    18
  6
Continuous
 62
     7
100
AcDbLine
 10
8048.057563
 20
448.678616
 30
0.0
 11
8044.466941
 21
458.011752
 31
0.0
  0
ENDBLK
  5
B9
100
AcDbEntity
  8
0
100
AcDbBlockEnd
  0
BLOCK
  5
BC
100
AcDbEntity
  8
0
100
AcDbBlockBegin
  2
C2
 70
    64
 10
0.0
 20
0.0
 30
0.0
  3
C2
  1

  0
ELLIPSE
  5
BD
100
AcDbEntity
  8
ﾚｲﾔｰ1
370
    18
  6
Continuous
 62
     7
100
AcDbEllipse
 10
8024.766549
 20
487.933455
 30
0.0
 11
7.5683284363907379
 21
-5.7472590735348392
 31
0.0
210
0.0
220
0.0
230
-1.0
 40
1.0
 41
-1.5707963267948966
 42
-0.4626879282568048
  0
LINE
  5
BE
100
AcDbEntity
  8
ﾚｲﾔｰ1
370
    18
  6
Continuous
 62
     7
100
AcDbLine
 10
8033.695072
 20
486.01116
 30
0.0
 11
8034.104431
 21
486.168647
 31
0.0
  0
LINE
  5
BF
100
AcDbEntity
  8
ﾚｲﾔｰ1
370
    18
  6
Continuous
 62
     7
100
AcDbLine
 10
8030.10445
 20
495.344296
 30
0.0
 11
8030.513808
 21
495.501784
 31
0.0
  0
LINE
  5
C0
100
AcDbEntity
  8
ﾚｲﾔｰ1
370
    18
  6
Continuous
 62
     7
100
AcDbLine
 10
8033.695072
 20
486.01116
 30
0.0
 11
8030.10445
 21
495.344296
 31
0.0
  0
ENDBLK
  5
C1
100
AcDbEntity
  8
0
100
AcDbBlockEnd
  0
BLOCK
  5
153
100
AcDbEntity
  8
0
100
AcDbBlockBegin
  2
C3
 70
    64
 10
0.0
 20
0.0
 30
0.0
  3
C3
  1

  0
ELLIPSE
  5
154
100
AcDbEntity
  8
ﾚｲﾔｰ1
370
    18
  6
Continuous
 62
     7
100
AcDbEllipse
 10
8196.388683
 20
41.834588
 30
0.0
 11
7.5683284363907379
 21
-5.7472590735348392
 31
0.0
210
0.0
220
0.0
230
-1.0
 40
1.0
 41
-1.5707963267948966
 42
-0.4626879282573573
  0
LINE
  5
155
100
AcDbEntity
  8
ﾚｲﾔｰ1
370
    18
  6
Continuous
 62
     7
100
AcDbLine
 10
8205.317206
 20
39.912293
 30
0.0
 11
8205.726565
 21
40.06978
 31
0.0
  0
LINE
  5
156
100
AcDbEntity
  8
ﾚｲﾔｰ1
370
    18
  6
Continuous
 62
     7
100
AcDbLine
 10
8201.726584
 20
49.245429
 30
0.0
 11
8202.135942
 21
49.402916
 31
0.0
  0
LINE
  5
157
100
AcDbEntity
  8
ﾚｲﾔｰ1
370
    18
  6
Continuous
 62
     7
100
AcDbLine
 10
8205.317206
 20
39.912293
 30
0.0
 11
8201.726584
 21
49.245429
 31
0.0
  0
ENDBLK
  5
158
100
AcDbEntity
  8
0
100
AcDbBlockEnd
  0
BLOCK
  5
1B9
100
AcDbEntity
  8
0
100
AcDbBlockBegin
  2
*D4
 70
    65
 10
0.0
 20
0.0
 30
0.0
  3
*D4
  1

  0
LINE
  5
1BA
100
AcDbEntity
  8
ﾚｲﾔｰ1
370
    18
  6
Continuous
 62
     5
100
AcDbLine
 10
7178.444557
 20
774.501365
 30
0.0
 11
7178.444557
 21
910.608447
 31
0.0
  0
LINE
  5
1BB
100
AcDbEntity
  8
ﾚｲﾔｰ1
370
    18
  6
Continuous
 62
     5
100
AcDbLine
 10
7058.444557
 20
774.501365
 30
0.0
 11
7058.444557
 21
910.608447
 31
0.0
  0
LINE
  5
1BC
100
AcDbEntity
  8
ﾚｲﾔｰ1
370
     5
  6
Continuous
 62
     5
100
AcDbLine
 10
7074.444557
 20
900.608447
 30
0.0
 11
7058.444557
 21
894.608447
 31
0.0
  0
LINE
  5
1BD
100
AcDbEntity
  8
ﾚｲﾔｰ1
370
     5
  6
Continuous
 62
     5
100
AcDbLine
 10
7058.444557
 20
894.608447
 30
0.0
 11
7074.444557
 21
888.608447
 31
0.0
  0
LINE
  5
1BE
100
AcDbEntity
  8
ﾚｲﾔｰ1
370
    18
  6
Continuous
 62
     5
100
AcDbLine
 10
7058.444557
 20
894.608447
 30
0.0
 11
7118.444557
 21
894.608447
 31
0.0
  0
LINE
  5
1BF
100
AcDbEntity
  8
ﾚｲﾔｰ1
370
     5
  6
Continuous
 62
     5
100
AcDbLine
 10
7162.444557
 20
888.608447
 30
0.0
 11
7178.444557
 21
894.608447
 31
0.0
  0
LINE
  5
1C0
100
AcDbEntity
  8
ﾚｲﾔｰ1
370
     5
  6
Continuous
 62
     5
100
AcDbLine
 10
7178.444557
 20
894.608447
 30
0.0
 11
7162.444557
 21
900.608447
 31
0.0
  0
LINE
  5
1C1
100
AcDbEntity
  8
ﾚｲﾔｰ1
370
    18
  6
Continuous
 62
     5
100
AcDbLine
 10
7178.444557
 20
894.608447
 30
0.0
 11
7118.444557
 21
894.608447
 31
0.0
  0
MTEXT
  5
1C2
100
AcDbEntity
  8
寸法線
370
    18
  6
Continuous
 62
     5
100
AcDbMText
 10
7099.394557
 20
924.008447
 30
0.0
 40
25.4
 41
38.248827
 71
     1
 72
     1
  1
120
  7
Style1
 73
     1
 44
1.0
  0
ENDBLK
  5
1C3
100
AcDbEntity
  8
0
100
AcDbBlockEnd
  0
BLOCK
  5
1DE
100
AcDbEntity
  8
0
100
AcDbBlockBegin
  2
*D5
 70
    65
 10
0.0
 20
0.0
 30
0.0
  3
*D5
  1

  0
LINE
  5
1DF
100
AcDbEntity
  8
ﾚｲﾔｰ1
370
    18
  6
Continuous
 62
     5
100
AcDbLine
 10
7218.480105
 20
1013.387568
 30
0.0
 11
7218.480105
 21
1067.504664
 31
0.0
  0
LINE
  5
1E0
100
AcDbEntity
  8
ﾚｲﾔｰ1
370
    18
  6
Continuous
 62
     5
100
AcDbLine
 10
7018.444557
 20
1013.387568
 30
0.0
 11
7018.444557
 21
1067.504664
 31
0.0
  0
LINE
  5
1E1
100
AcDbEntity
  8
ﾚｲﾔｰ1
370
     5
  6
Continuous
 62
     5
100
AcDbLine
 10
7034.444557
 20
1057.504664
 30
0.0
 11
7018.444557
 21
1051.504664
 31
0.0
  0
LINE
  5
1E2
100
AcDbEntity
  8
ﾚｲﾔｰ1
370
     5
  6
Continuous
 62
     5
100
AcDbLine
 10
7018.444557
 20
1051.504664
 30
0.0
 11
7034.444557
 21
1045.504664
 31
0.0
  0
LINE
  5
1E3
100
AcDbEntity
  8
ﾚｲﾔｰ1
370
    18
  6
Continuous
 62
     5
100
AcDbLine
 10
7018.444557
 20
1051.504664
 30
0.0
 11
7118.462331
 21
1051.504664
 31
0.0
  0
LINE
  5
1E4
100
AcDbEntity
  8
ﾚｲﾔｰ1
370
     5
  6
Continuous
 62
     5
100
AcDbLine
 10
7202.480105
 20
1045.504664
 30
0.0
 11
7218.480105
 21
1051.504664
 31
0.0
  0
LINE
  5
1E5
100
AcDbEntity
  8
ﾚｲﾔｰ1
370
     5
  6
Continuous
 62
     5
100
AcDbLine
 10
7218.480105
 20
1051.504664
 30
0.0
 11
7202.480105
 21
1057.504664
 31
0.0
  0
LINE
  5
1E6
100
AcDbEntity
  8
ﾚｲﾔｰ1
370
    18
  6
Continuous
 62
     5
100
AcDbLine
 10
7218.480105
 20
1051.504664
 30
0.0
 11
7118.462331
 21
1051.504664
 31
0.0
  0
MTEXT
  5
1E7
100
AcDbEntity
  8
寸法線
370
    50
  6
Continuous
 62
     5
100
AcDbMText
 10
7080.362331
 20
1080.904664
 30
0.0
 40
25.4
 41
76.497653
 71
     1
 72
     1
  1
MAX435
  7
Style1
 73
     1
 44
1.0
  0
ENDBLK
  5
1E8
100
AcDbEntity
  8
0
100
AcDbBlockEnd
  0
BLOCK
  5
271
100
AcDbEntity
  8
0
100
AcDbBlockBegin
  2
*D6
 70
    65
 10
0.0
 20
0.0
 30
0.0
  3
*D6
  1

  0
LINE
  5
272
100
AcDbEntity
  8
ﾚｲﾔｰ1
370
    18
  6
Continuous
 62
     5
100
AcDbLine
 10
6607.889644
 20
870.232007
 30
0.0
 11
6607.889644
 21
912.683933
 31
0.0
  0
LINE
  5
273
100
AcDbEntity
  8
ﾚｲﾔｰ1
370
    18
  6
Continuous
 62
     5
100
AcDbLine
 10
6676.214539
 20
870.232007
 30
0.0
 11
6676.214539
 21
912.683933
 31
0.0
  0
LINE
  5
274
100
AcDbEntity
  8
ﾚｲﾔｰ1
370
     5
  6
Continuous
 62
     5
100
AcDbLine
 10
6660.214539
 20
890.683933
 30
0.0
 11
6676.214539
 21
896.683933
 31
0.0
  0
LINE
  5
275
100
AcDbEntity
  8
ﾚｲﾔｰ1
370
     5
  6
Continuous
 62
     5
100
AcDbLine
 10
6676.214539
 20
896.683933
 30
0.0
 11
6660.214539
 21
902.683933
 31
0.0
  0
LINE
  5
276
100
AcDbEntity
  8
ﾚｲﾔｰ1
370
    18
  6
Continuous
 62
     5
100
AcDbLine
 10
6676.214539
 20
896.683933
 30
0.0
 11
6642.052091
 21
896.683933
 31
0.0
  0
LINE
  5
277
100
AcDbEntity
  8
ﾚｲﾔｰ1
370
     5
  6
Continuous
 62
     5
100
AcDbLine
 10
6623.889644
 20
902.683933
 30
0.0
 11
6607.889644
 21
896.683933
 31
0.0
  0
LINE
  5
278
100
AcDbEntity
  8
ﾚｲﾔｰ1
370
     5
  6
Continuous
 62
     5
100
AcDbLine
 10
6607.889644
 20
896.683933
 30
0.0
 11
6623.889644
 21
890.683933
 31
0.0
  0
LINE
  5
279
100
AcDbEntity
  8
ﾚｲﾔｰ1
370
    18
  6
Continuous
 62
     5
100
AcDbLine
 10
6607.889644
 20
896.683933
 30
0.0
 11
6642.052091
 21
896.683933
 31
0.0
  0
MTEXT
  5
27A
100
AcDbEntity
  8
寸法線
370
    50
  6
Continuous
 62
     5
100
AcDbMText
 10
6629.352092
 20
926.083932
 30
0.0
 40
25.4
 41
25.499218
 71
     1
 72
     1
  1
68
  7
Style1
 73
     1
 44
1.0
  0
ENDBLK
  5
27B
100
AcDbEntity
  8
0
100
AcDbBlockEnd
  0
BLOCK
  5
2A7
100
AcDbEntity
  8
0
100
AcDbBlockBegin
  2
C4
 70
    64
 10
0.0
 20
0.0
 30
0.0
  3
C4
  1

  0
LINE
  5
2A8
100
AcDbEntity
  8
ﾚｲﾔｰ1
370
    18
  6
Continuous
 62
     7
100
AcDbLine
 10
6672.05424
 20
831.801365
 30
0.0
 11
6674.35424
 21
831.801365
 31
0.0
  0
LINE
  5
2A9
100
AcDbEntity
  8
ﾚｲﾔｰ1
370
    18
  6
Continuous
 62
     7
100
AcDbLine
 10
6674.35424
 20
776.501362
 30
0.0
 11
6674.35424
 21
833.101365
 31
0.0
  0
LINE
  5
2AA
100
AcDbEntity
  8
ﾚｲﾔｰ1
370
    18
  6
Continuous
 62
     7
100
AcDbLine
 10
6672.05424
 20
777.801365
 30
0.0
 11
6674.35424
 21
777.801365
 31
0.0
  0
ELLIPSE
  5
2AB
100
AcDbEntity
  8
ﾚｲﾔｰ1
370
    18
  6
Continuous
 62
     7
100
AcDbEllipse
 10
6672.35424
 20
776.501365
 30
0.0
 11
2.0000000000000022
 21
0.0000000000000994
 31
0.0
210
0.0
220
0.0
230
1.0
 40
1.0
 41
-1.5707963267948966
 42
0.0
  0
INSERT
  5
2B3
100
AcDbEntity
  8
ﾚｲﾔｰ1
370
    18
  6
Continuous
 62
     7
100
AcDbBlockReference
  2
C5
 10
0.0
 20
0.0
 30
0.0
  0
INSERT
  5
2BB
100
AcDbEntity
  8
ﾚｲﾔｰ1
370
    18
  6
Continuous
 62
     7
100
AcDbBlockReference
  2
C6
 10
0.0
 20
0.0
 30
0.0
  0
LINE
  5
2BC
100
AcDbEntity
  8
ﾚｲﾔｰ1
370
    18
  6
Continuous
 62
     7
100
AcDbLine
 10
6672.35424
 20
835.101365
 30
0.0
 11
6672.05424
 21
835.101365
 31
0.0
  0
LINE
  5
2BD
100
AcDbEntity
  8
ﾚｲﾔｰ1
370
    18
  6
Continuous
 62
     7
100
AcDbLine
 10
6672.35424
 20
774.501365
 30
0.0
 11
6672.05424
 21
774.501365
 31
0.0
  0
LINE
  5
2BE
100
AcDbEntity
  8
ﾚｲﾔｰ1
370
    18
  6
Continuous
 62
     7
100
AcDbLine
 10
6672.35424
 20
835.101365
 30
0.0
 11
6672.05424
 21
835.101365
 31
0.0
  0
ELLIPSE
  5
2BF
100
AcDbEntity
  8
ﾚｲﾔｰ1
370
    18
  6
Continuous
 62
     7
100
AcDbEllipse
 10
6672.35424
 20
833.101365
 30
0.0
 11
2.0000000000000022
 21
0.0000000000000994
 31
0.0
210
0.0
220
0.0
230
-1.0
 40
1.0
 41
-1.5707963267948966
 42
0.0
  0
ELLIPSE
  5
2C0
100
AcDbEntity
  8
ﾚｲﾔｰ1
370
    18
  6
Continuous
 62
     7
100
AcDbEllipse
 10
6672.35424
 20
776.501365
 30
0.0
 11
0.0000000000047675
 21
-2.0000000000004357
 31
0.0
210
0.0
220
0.0
230
1.0
 40
1.0
 41
0.0
 42
1.5707963267948966
  0
LINE
  5
2C1
100
AcDbEntity
  8
ﾚｲﾔｰ1
370
    18
  6
Continuous
 62
     7
100
AcDbLine
 10
6672.35424
 20
774.501365
 30
0.0
 11
6672.05424
 21
774.501365
 31
0.0
  0
ENDBLK
  5
2C2
100
AcDbEntity
  8
0
100
AcDbBlockEnd
  0
BLOCK
  5
2AD
100
AcDbEntity
  8
0
100
AcDbBlockBegin
  2
C5
 70
    64
 10
0.0
 20
0.0
 30
0.0
  3
C5
  1

  0
ELLIPSE
  5
2AE
100
AcDbEntity
  8
ﾚｲﾔｰ1
370
    18
  6
Continuous
 62
     7
100
AcDbEllipse
 10
6666.711351
 20
784.801365
 30
0.0
 11
5.0000000000046967
 21
-8.0814962834466648
 31
0.0
210
0.0
220
0.0
230
-0.9999999999999999
 40
1.0
 41
-1.5707963267948966
 42
-0.4626879282579859
  0
LINE
  5
2AF
100
AcDbEntity
  8
ﾚｲﾔｰ1
370
    18
  6
Continuous
 62
     7
100
AcDbLine
 10
6674.35424
 20
779.801365
 30
0.0
 11
6674.792847
 21
779.801365
 31
0.0
  0
LINE
  5
2B0
100
AcDbEntity
  8
ﾚｲﾔｰ1
370
    18
  6
Continuous
 62
     7
100
AcDbLine
 10
6674.35424
 20
789.801365
 30
0.0
 11
6674.792847
 21
789.801365
 31
0.0
  0
LINE
  5
2B1
100
AcDbEntity
  8
ﾚｲﾔｰ1
370
    18
  6
Continuous
 62
     7
100
AcDbLine
 10
6674.35424
 20
779.801365
 30
0.0
 11
6674.35424
 21
789.801365
 31
0.0
  0
ENDBLK
  5
2B2
100
AcDbEntity
  8
0
100
AcDbBlockEnd
  0
BLOCK
  5
2B5
100
AcDbEntity
  8
0
100
AcDbBlockBegin
  2
C6
 70
    64
 10
0.0
 20
0.0
 30
0.0
  3
C6
  1

  0
ELLIPSE
  5
2B6
100
AcDbEntity
  8
ﾚｲﾔｰ1
370
    18
  6
Continuous
 62
     7
100
AcDbEllipse
 10
6666.711351
 20
824.801365
 30
0.0
 11
8.0814962834774633
 21
5.0
 31
0.0
210
0.0
220
0.0
230
-1.0
 40
1.0
 41
0.0
 42
1.1081083985312903
  0
LINE
  5
2B7
100
AcDbEntity
  8
ﾚｲﾔｰ1
370
    18
  6
Continuous
 62
     7
100
AcDbLine
 10
6674.35424
 20
819.801365
 30
0.0
 11
6674.792847
 21
819.801365
 31
0.0
  0
LINE
  5
2B8
100
AcDbEntity
  8
ﾚｲﾔｰ1
370
    18
  6
Continuous
 62
     7
100
AcDbLine
 10
6674.35424
 20
829.801365
 30
0.0
 11
6674.792847
 21
829.801365
 31
0.0
  0
LINE
  5
2B9
100
AcDbEntity
  8
ﾚｲﾔｰ1
370
    18
  6
Continuous
 62
     7
100
AcDbLine
 10
6674.35424
 20
819.801365
 30
0.0
 11
6674.35424
 21
829.801365
 31
0.0
  0
ENDBLK
  5
2BA
100
AcDbEntity
  8
0
100
AcDbBlockEnd
  0
BLOCK
  5
2F4
100
AcDbEntity
  8
0
100
AcDbBlockBegin
  2
C7
 70
    64
 10
0.0
 20
0.0
 30
0.0
  3
C7
  1

  0
ELLIPSE
  5
2F5
100
AcDbEntity
  8
ﾚｲﾔｰ1
370
    18
  6
Continuous
 62
     7
100
AcDbEllipse
 10
6617.392832
 20
512.252463
 30
0.0
 11
-4.9999999999990541
 21
-8.0814962834501554
 31
0.0
210
0.0
220
0.0
230
1.0
 40
1.0
 41
-1.5707963267948966
 42
-0.462687928257679
  0
LINE
  5
2F6
100
AcDbEntity
  8
ﾚｲﾔｰ1
370
    18
  6
Continuous
 62
     7
100
AcDbLine
 10
6609.749943
 20
507.252463
 30
0.0
 11
6609.311335
 21
507.252463
 31
0.0
  0
LINE
  5
2F7
100
AcDbEntity
  8
ﾚｲﾔｰ1
370
    18
  6
Continuous
 62
     7
100
AcDbLine
 10
6609.749943
 20
517.252463
 30
0.0
 11
6609.311335
 21
517.252463
 31
0.0
  0
LINE
  5
2F8
100
AcDbEntity
  8
ﾚｲﾔｰ1
370
    18
  6
Continuous
 62
     7
100
AcDbLine
 10
6609.749943
 20
507.252463
 30
0.0
 11
6609.749943
 21
517.252463
 31
0.0
  0
ENDBLK
  5
2F9
100
AcDbEntity
  8
0
100
AcDbBlockEnd
  0
BLOCK
  5
2FF
100
AcDbEntity
  8
0
100
AcDbBlockBegin
  2
C8
 70
    64
 10
0.0
 20
0.0
 30
0.0
  3
C8
  1

  0
ELLIPSE
  5
300
100
AcDbEntity
  8
ﾚｲﾔｰ1
370
    18
  6
Continuous
 62
     7
100
AcDbEllipse
 10
6617.392832
 20
472.252463
 30
0.0
 11
-4.9999999999990541
 21
-8.0814962834501554
 31
0.0
210
0.0
220
0.0
230
1.0
 40
1.0
 41
-1.5707963267948966
 42
-0.462687928258815
  0
LINE
  5
301
100
AcDbEntity
  8
ﾚｲﾔｰ1
370
    18
  6
Continuous
 62
     7
100
AcDbLine
 10
6609.749943
 20
467.252463
 30
0.0
 11
6609.311335
 21
467.252463
 31
0.0
  0
LINE
  5
302
100
AcDbEntity
  8
ﾚｲﾔｰ1
370
    18
  6
Continuous
 62
     7
100
AcDbLine
 10
6609.749943
 20
477.252463
 30
0.0
 11
6609.311335
 21
477.252463
 31
0.0
  0
LINE
  5
303
100
AcDbEntity
  8
ﾚｲﾔｰ1
370
    18
  6
Continuous
 62
     7
100
AcDbLine
 10
6609.749943
 20
467.252463
 30
0.0
 11
6609.749943
 21
477.252463
 31
0.0
  0
ENDBLK
  5
304
100
AcDbEntity
  8
0
100
AcDbBlockEnd
  0
BLOCK
  5
37B
100
AcDbEntity
  8
0
100
AcDbBlockBegin
  2
C9
 70
    64
 10
0.0
 20
0.0
 30
0.0
  3
C9
  1

  0
ELLIPSE
  5
37C
100
AcDbEntity
  8
ﾚｲﾔｰ1
370
    18
  6
Continuous
 62
     7
100
AcDbEllipse
 10
6617.392832
 20
34.279288
 30
0.0
 11
-4.9999999999990541
 21
-8.0814962834501554
 31
0.0
210
0.0
220
0.0
230
1.0
 40
1.0
 41
-1.5707963267948966
 42
-0.4626879282534264
  0
LINE
  5
37D
100
AcDbEntity
  8
ﾚｲﾔｰ1
370
    18
  6
Continuous
 62
     7
100
AcDbLine
 10
6609.749943
 20
29.279288
 30
0.0
 11
6609.311335
 21
29.279288
 31
0.0
  0
LINE
  5
37E
100
AcDbEntity
  8
ﾚｲﾔｰ1
370
    18
  6
Continuous
 62
     7
100
AcDbLine
 10
6609.749943
 20
39.279288
 30
0.0
 11
6609.311335
 21
39.279288
 31
0.0
  0
LINE
  5
37F
100
AcDbEntity
  8
ﾚｲﾔｰ1
370
    18
  6
Continuous
 62
     7
100
AcDbLine
 10
6609.749943
 20
29.279288
 30
0.0
 11
6609.749943
 21
39.279288
 31
0.0
  0
ENDBLK
  5
380
100
AcDbEntity
  8
0
100
AcDbBlockEnd
  0
BLOCK
  5
39C
100
AcDbEntity
  8
0
100
AcDbBlockBegin
  2
*D13
 70
    65
 10
0.0
 20
0.0
 30
0.0
  3
*D13
  1

  0
LINE
  5
39D
100
AcDbEntity
  8
ﾚｲﾔｰ1
370
    18
  6
Continuous
 62
     5
100
AcDbLine
 10
6676.214539
 20
-90.192581
 30
0.0
 11
6676.214539
 21
-170.569052
 31
0.0
  0
LINE
  5
39E
100
AcDbEntity
  8
ﾚｲﾔｰ1
370
    18
  6
Continuous
 62
     5
100
AcDbLine
 10
6581.472081
 20
-90.192581
 30
0.0
 11
6581.472081
 21
-170.569052
 31
0.0
  0
LINE
  5
39F
100
AcDbEntity
  8
ﾚｲﾔｰ1
370
     5
  6
Continuous
 62
     5
100
AcDbLine
 10
6597.472081
 20
-148.569052
 30
0.0
 11
6581.472081
 21
-154.569052
 31
0.0
  0
LINE
  5
3A0
100
AcDbEntity
  8
ﾚｲﾔｰ1
370
     5
  6
Continuous
 62
     5
100
AcDbLine
 10
6581.472081
 20
-154.569052
 30
0.0
 11
6597.472081
 21
-160.569052
 31
0.0
  0
LINE
  5
3A1
100
AcDbEntity
  8
ﾚｲﾔｰ1
370
    18
  6
Continuous
 62
     5
100
AcDbLine
 10
6581.472081
 20
-154.569052
 30
0.0
 11
6628.84331
 21
-154.569052
 31
0.0
  0
LINE
  5
3A2
100
AcDbEntity
  8
ﾚｲﾔｰ1
370
     5
  6
Continuous
 62
     5
100
AcDbLine
 10
6660.214539
 20
-160.569052
 30
0.0
 11
6676.214539
 21
-154.569052
 31
0.0
  0
LINE
  5
3A3
100
AcDbEntity
  8
ﾚｲﾔｰ1
370
     5
  6
Continuous
 62
     5
100
AcDbLine
 10
6676.214539
 20
-154.569052
 30
0.0
 11
6660.214539
 21
-148.569052
 31
0.0
  0
LINE
  5
3A4
100
AcDbEntity
  8
ﾚｲﾔｰ1
370
    18
  6
Continuous
 62
     5
100
AcDbLine
 10
6676.214539
 20
-154.569052
 30
0.0
 11
6628.84331
 21
-154.569052
 31
0.0
  0
MTEXT
  5
3A5
100
AcDbEntity
  8
寸法線
370
    50
  6
Continuous
 62
     5
100
AcDbMText
 10
6616.14331
 20
-125.169053
 30
0.0
 40
25.4
 41
25.499218
 71
     1
 72
     1
  1
95
  7
Style1
 73
     1
 44
1.0
  0
ENDBLK
  5
3A6
100
AcDbEntity
  8
0
100
AcDbBlockEnd
  0
BLOCK
  5
3E6
100
AcDbEntity
  8
0
100
AcDbBlockBegin
  2
C10
 70
    64
 10
0.0
 20
0.0
 30
0.0
  3
C10
  1

  0
ELLIPSE
  5
3E7
100
AcDbEntity
  8
ﾚｲﾔｰ1
370
    18
  6
Continuous
 62
     7
100
AcDbEllipse
 10
6617.392832
 20
-5.720712
 30
0.0
 11
-4.9999999999990541
 21
-8.0814962834501554
 31
0.0
210
0.0
220
0.0
230
1.0
 40
1.0
 41
-1.5707963267948966
 42
-0.462687928258815
  0
LINE
  5
3E8
100
AcDbEntity
  8
ﾚｲﾔｰ1
370
    18
  6
Continuous
 62
     7
100
AcDbLine
 10
6609.749943
 20
-10.720712
 30
0.0
 11
6609.311335
 21
-10.720712
 31
0.0
  0
LINE
  5
3E9
100
AcDbEntity
  8
ﾚｲﾔｰ1
370
    18
  6
Continuous
 62
     7
100
AcDbLine
 10
6609.749943
 20
-0.720712
 30
0.0
 11
6609.311335
 21
-0.720712
 31
0.0
  0
LINE
  5
3EA
100
AcDbEntity
  8
ﾚｲﾔｰ1
370
    18
  6
Continuous
 62
     7
100
AcDbLine
 10
6609.749943
 20
-10.720712
 30
0.0
 11
6609.749943
 21
-0.720712
 31
0.0
  0
ENDBLK
  5
3EB
100
AcDbEntity
  8
0
100
AcDbBlockEnd
  0
BLOCK
  5
3FE
100
AcDbEntity
  8
0
100
AcDbBlockBegin
  2
C11
 70
    64
 10
0.0
 20
0.0
 30
0.0
  3
C11
  1

  0
ELLIPSE
  5
3FF
100
AcDbEntity
  8
ﾚｲﾔｰ1
370
    18
  6
Continuous
 62
     7
100
AcDbEllipse
 10
8210.751174
 20
4.502044
 30
0.0
 11
7.5683284363907379
 21
-5.7472590735348392
 31
0.0
210
0.0
220
0.0
230
-1.0
 40
1.0
 41
-1.5707963267948966
 42
-0.462687928258815
  0
LINE
  5
400
100
AcDbEntity
  8
ﾚｲﾔｰ1
370
    18
  6
Continuous
 62
     7
100
AcDbLine
 10
8219.679697
 20
2.579748
 30
0.0
 11
8220.089056
 21
2.737236
 31
0.0
  0
LINE
  5
401
100
AcDbEntity
  8
ﾚｲﾔｰ1
370
    18
  6
Continuous
 62
     7
100
AcDbLine
 10
8216.089074
 20
11.912884
 30
0.0
 11
8216.498433
 21
12.070372
 31
0.0
  0
LINE
  5
402
100
AcDbEntity
  8
ﾚｲﾔｰ1
370
    18
  6
Continuous
 62
     7
100
AcDbLine
 10
8219.679697
 20
2.579748
 30
0.0
 11
8216.089074
 21
11.912884
 31
0.0
  0
ENDBLK
  5
403
100
AcDbEntity
  8
0
100
AcDbBlockEnd
  0
BLOCK
  5
40B
100
AcDbEntity
  8
0
100
AcDbBlockBegin
  2
C12
 70
    64
 10
0.0
 20
0.0
 30
0.0
  3
C12
  1

  0
LINE
  5
40C
100
AcDbEntity
  8
ﾚｲﾔｰ1
370
    18
  6
Continuous
 62
     7
100
AcDbLine
 10
8019.812549
 20
804.224605
 30
0.0
 11
8017.62512
 21
804.935346
 31
0.0
  0
LINE
  5
40D
100
AcDbEntity
  8
ﾚｲﾔｰ1
370
    18
  6
Continuous
 62
     7
100
AcDbLine
 10
8000.536433
 20
752.341933
 30
0.0
 11
8018.026843
 21
806.171719
 31
0.0
  0
LINE
  5
40E
100
AcDbEntity
  8
ﾚｲﾔｰ1
370
    18
  6
Continuous
 62
     7
100
AcDbLine
 10
8003.125586
 20
752.867568
 30
0.0
 11
8000.938157
 21
753.578309
 31
0.0
  0
ELLIPSE
  5
40F
100
AcDbEntity
  8
ﾚｲﾔｰ1
370
    18
  6
Continuous
 62
     7
100
AcDbEllipse
 10
8002.438546
 20
751.7239
 30
0.0
 11
-1.902112487770987
 21
0.6180356655288395
 31
0.0
210
0.0
220
0.0
230
-1.0
 40
1.0
 41
-1.5707963267948966
 42
0.0
  0
INSERT
  5
417
100
AcDbEntity
  8
ﾚｲﾔｰ1
370
    18
  6
Continuous
 62
     7
100
AcDbBlockReference
  2
C13
 10
0.0
 20
0.0
 30
0.0
  0
INSERT
  5
41F
100
AcDbEntity
  8
ﾚｲﾔｰ1
370
    18
  6
Continuous
 62
     7
100
AcDbBlockReference
  2
C14
 10
0.0
 20
0.0
 30
0.0
  0
LINE
  5
420
100
AcDbEntity
  8
ﾚｲﾔｰ1
370
    18
  6
Continuous
 62
     7
100
AcDbLine
 10
8020.546991
 20
807.455796
 30
0.0
 11
8020.832308
 21
807.363091
 31
0.0
  0
LINE
  5
421
100
AcDbEntity
  8
ﾚｲﾔｰ1
370
    18
  6
Continuous
 62
     7
100
AcDbLine
 10
8001.820511
 20
749.821788
 30
0.0
 11
8002.105827
 21
749.729082
 31
0.0
  0
LINE
  5
422
100
AcDbEntity
  8
ﾚｲﾔｰ1
370
    18
  6
Continuous
 62
     7
100
AcDbLine
 10
8020.546991
 20
807.455796
 30
0.0
 11
8020.832308
 21
807.363091
 31
0.0
  0
ELLIPSE
  5
423
100
AcDbEntity
  8
ﾚｲﾔｰ1
370
    18
  6
Continuous
 62
     7
100
AcDbEllipse
 10
8019.928956
 20
805.553683
 30
0.0
 11
-1.902112487770987
 21
0.6180356655288395
 31
0.0
210
0.0
220
0.0
230
1.0
 40
1.0
 41
-1.5707963267948966
 42
0.0
  0
ELLIPSE
  5
424
100
AcDbEntity
  8
ﾚｲﾔｰ1
370
    18
  6
Continuous
 62
     7
100
AcDbEllipse
 10
8002.438546
 20
751.7239
 30
0.0
 11
-0.6180356655334132
 21
-1.9021124877699567
 31
0.0
210
0.0
220
0.0
230
-1.0
 40
1.0
 41
0.0
 42
1.5707963267948966
  0
LINE
  5
425
100
AcDbEntity
  8
ﾚｲﾔｰ1
370
    18
  6
Continuous
 62
     7
100
AcDbLine
 10
8001.820511
 20
749.821788
 30
0.0
 11
8002.105827
 21
749.729082
 31
0.0
  0
ENDBLK
  5
426
100
AcDbEntity
  8
0
100
AcDbBlockEnd
  0
BLOCK
  5
411
100
AcDbEntity
  8
0
100
AcDbBlockBegin
  2
C13
 70
    64
 10
0.0
 20
0.0
 30
0.0
  3
C13
  1

  0
ARC
  5
412
100
AcDbEntity
  8
ﾚｲﾔｰ1
370
    18
  6
Continuous
 62
     7
100
AcDbCircle
 10
8010.370099
 20
757.873914
 30
0.0
 40
9.503188
100
AcDbArc
 50
130.254982
 51
-166.255083
  0
LINE
  5
413
100
AcDbEntity
  8
ﾚｲﾔｰ1
370
    18
  6
Continuous
 62
     7
100
AcDbLine
 10
8001.556193
 20
755.480421
 30
0.0
 11
8001.139052
 21
755.615959
 31
0.0
  0
LINE
  5
414
100
AcDbEntity
  8
ﾚｲﾔｰ1
370
    18
  6
Continuous
 62
     7
100
AcDbLine
 10
8004.646371
 20
764.990984
 30
0.0
 11
8004.22923
 21
765.126521
 31
0.0
  0
LINE
  5
415
100
AcDbEntity
  8
ﾚｲﾔｰ1
370
    18
  6
Continuous
 62
     7
100
AcDbLine
 10
8001.556193
 20
755.480421
 30
0.0
 11
8004.646371
 21
764.990984
 31
0.0
  0
ENDBLK
  5
416
100
AcDbEntity
  8
0
100
AcDbBlockEnd
  0
BLOCK
  5
419
100
AcDbEntity
  8
0
100
AcDbBlockBegin
  2
C14
 70
    64
 10
0.0
 20
0.0
 30
0.0
  3
C14
  1

  0
ARC
  5
41A
100
AcDbEntity
  8
ﾚｲﾔｰ1
370
    18
  6
Continuous
 62
     7
100
AcDbCircle
 10
8022.730812
 20
795.916163
 30
0.0
 40
9.503188
100
AcDbArc
 50
130.254982
 51
-166.255083
  0
LINE
  5
41B
100
AcDbEntity
  8
ﾚｲﾔｰ1
370
    18
  6
Continuous
 62
     7
100
AcDbLine
 10
8013.916906
 20
793.522671
 30
0.0
 11
8013.499765
 21
793.658209
 31
0.0
  0
LINE
  5
41C
100
AcDbEntity
  8
ﾚｲﾔｰ1
370
    18
  6
Continuous
 62
     7
100
AcDbLine
 10
8017.007084
 20
803.033233
 30
0.0
 11
8016.589944
 21
803.168771
 31
0.0
  0
LINE
  5
41D
100
AcDbEntity
  8
ﾚｲﾔｰ1
370
    18
  6
Continuous
 62
     7
100
AcDbLine
 10
8013.916906
 20
793.522671
 30
0.0
 11
8017.007084
 21
803.033233
 31
0.0
  0
ENDBLK
  5
41E
100
AcDbEntity
  8
0
100
AcDbBlockEnd
  0
BLOCK
  5
442
100
AcDbEntity
  8
0
100
AcDbBlockBegin
  2
C15
 70
    64
 10
0.0
 20
0.0
 30
0.0
  3
C15
  1

  0
LINE
  5
443
100
AcDbEntity
  8
ﾚｲﾔｰ1
370
    50
  6
Continuous
 62
     7
100
AcDbLine
 10
6439.619435
 20
1155.174156
 30
0.0
 11
8675.619435
 21
1155.174156
 31
0.0
  0
LINE
  5
444
100
AcDbEntity
  8
ﾚｲﾔｰ1
370
    50
  6
Continuous
 62
     7
100
AcDbLine
 10
8675.619435
 20
-396.825844
 30
0.0
 11
6439.619435
 21
-396.825844
 31
0.0
  0
LINE
  5
445
100
AcDbEntity
  8
ﾚｲﾔｰ1
370
    50
  6
Continuous
 62
     7
100
AcDbLine
 10
6439.619435
 20
-396.825844
 30
0.0
 11
6439.619435
 21
1155.174156
 31
0.0
  0
LINE
  5
446
100
AcDbEntity
  8
ﾚｲﾔｰ1
370
    50
  6
Continuous
 62
     7
100
AcDbLine
 10
8675.619435
 20
1155.174156
 30
0.0
 11
8675.619435
 21
-396.825844
 31
0.0
  0
ENDBLK
  5
447
100
AcDbEntity
  8
0
100
AcDbBlockEnd
  0
BLOCK
  5
44E
100
AcDbEntity
  8
0
100
AcDbBlockBegin
  2
*D20
 70
    65
 10
0.0
 20
0.0
 30
0.0
  3
*D20
  1

  0
LINE
  5
44F
100
AcDbEntity
  8
ﾚｲﾔｰ1
370
    18
  6
Continuous
 62
     5
100
AcDbLine
 10
6559.134355
 20
850.001365
 30
0.0
 11
6500.639043
 21
850.001365
 31
0.0
  0
LINE
  5
450
100
AcDbEntity
  8
ﾚｲﾔｰ1
370
    18
  6
Continuous
 62
     5
100
AcDbLine
 10
6559.134355
 20
-90.192581
 30
0.0
 11
6500.639043
 21
-90.192581
 31
0.0
  0
LINE
  5
451
100
AcDbEntity
  8
ﾚｲﾔｰ1
370
     5
  6
Continuous
 62
     5
100
AcDbLine
 10
6510.639043
 20
-74.192581
 30
0.0
 11
6516.639043
 21
-90.192581
 31
0.0
  0
LINE
  5
452
100
AcDbEntity
  8
ﾚｲﾔｰ1
370
     5
  6
Continuous
 62
     5
100
AcDbLine
 10
6516.639043
 20
-90.192581
 30
0.0
 11
6522.639043
 21
-74.192581
 31
0.0
  0
LINE
  5
453
100
AcDbEntity
  8
ﾚｲﾔｰ1
370
    18
  6
Continuous
 62
     5
100
AcDbLine
 10
6516.639043
 20
-90.192581
 30
0.0
 11
6516.639043
 21
379.904392
 31
0.0
  0
LINE
  5
454
100
AcDbEntity
  8
ﾚｲﾔｰ1
370
     5
  6
Continuous
 62
     5
100
AcDbLine
 10
6522.639043
 20
834.001365
 30
0.0
 11
6516.639043
 21
850.001365
 31
0.0
  0
LINE
  5
455
100
AcDbEntity
  8
ﾚｲﾔｰ1
370
     5
  6
Continuous
 62
     5
100
AcDbLine
 10
6516.639043
 20
850.001365
 30
0.0
 11
6510.639043
 21
834.001365
 31
0.0
  0
LINE
  5
456
100
AcDbEntity
  8
ﾚｲﾔｰ1
370
    18
  6
Continuous
 62
     5
100
AcDbLine
 10
6516.639043
 20
850.001365
 30
0.0
 11
6516.639043
 21
379.904392
 31
0.0
  0
MTEXT
  5
457
100
AcDbEntity
  8
寸法線
370
    50
  6
Continuous
 62
     5
100
AcDbMText
 10
6487.239043
 20
360.854392
 30
0.0
 40
25.4
 41
38.248827
 71
     1
 72
     1
  1
940
  7
Style1
 11
0.0
 21
1.0
 31
0.0
 73
     1
 44
1.0
  0
ENDBLK
  5
458
100
AcDbEntity
  8
0
100
AcDbBlockEnd
  0
BLOCK
  5
46D
100
AcDbEntity
  8
0
100
AcDbBlockBegin
  2
*D21
 70
    65
 10
0.0
 20
0.0
 30
0.0
  3
*D21
  1

  0
LINE
  5
46E
100
AcDbEntity
  8
ﾚｲﾔｰ1
370
    18
  6
Continuous
 62
     5
100
AcDbLine
 10
6868.444557
 20
-63.055062
 30
0.0
 11
6868.444557
 21
-170.569052
 31
0.0
  0
LINE
  5
46F
100
AcDbEntity
  8
ﾚｲﾔｰ1
370
    18
  6
Continuous
 62
     5
100
AcDbLine
 10
7368.444557
 20
-78.198635
 30
0.0
 11
7368.444557
 21
-170.569052
 31
0.0
  0
LINE
  5
470
100
AcDbEntity
  8
ﾚｲﾔｰ1
370
     5
  6
Continuous
 62
     5
100
AcDbLine
 10
7352.444557
 20
-160.569052
 30
0.0
 11
7368.444557
 21
-154.569052
 31
0.0
  0
LINE
  5
471
100
AcDbEntity
  8
ﾚｲﾔｰ1
370
     5
  6
Continuous
 62
     5
100
AcDbLine
 10
7368.444557
 20
-154.569052
 30
0.0
 11
7352.444557
 21
-148.569052
 31
0.0
  0
LINE
  5
472
100
AcDbEntity
  8
ﾚｲﾔｰ1
370
    18
  6
Continuous
 62
     5
100
AcDbLine
 10
7368.444557
 20
-154.569052
 30
0.0
 11
7118.444557
 21
-154.569052
 31
0.0
  0
LINE
  5
473
100
AcDbEntity
  8
ﾚｲﾔｰ1
370
     5
  6
Continuous
 62
     5
100
AcDbLine
 10
6884.444557
 20
-148.569052
 30
0.0
 11
6868.444557
 21
-154.569052
 31
0.0
  0
LINE
  5
474
100
AcDbEntity
  8
ﾚｲﾔｰ1
370
     5
  6
Continuous
 62
     5
100
AcDbLine
 10
6868.444557
 20
-154.569052
 30
0.0
 11
6884.444557
 21
-160.569052
 31
0.0
  0
LINE
  5
475
100
AcDbEntity
  8
ﾚｲﾔｰ1
370
    18
  6
Continuous
 62
     5
100
AcDbLine
 10
6868.444557
 20
-154.569052
 30
0.0
 11
7118.444557
 21
-154.569052
 31
0.0
  0
MTEXT
  5
476
100
AcDbEntity
  8
寸法線
370
    40
  6
Continuous
 62
     5
100
AcDbMText
 10
7099.394557
 20
-125.169053
 30
0.0
 40
25.4
 41
38.248827
 71
     1
 72
     1
  1
500
  7
Style1
 73
     1
 44
1.0
  0
ENDBLK
  5
477
100
AcDbEntity
  8
0
100
AcDbBlockEnd
  0
ENDSEC
  0
SECTION
  2
ENTITIES
  0
LINE
  5
48
100
AcDbEntity
  8
ﾚｲﾔｰ1
370
     5
  6
Continuous
 62
     5
100
AcDbLine
 10
8597.509207
 20
1022.700392
 30
0.0
 11
8597.509207
 21
822.700392
 31
0.0
  0
LINE
  5
49
100
AcDbEntity
  8
ﾚｲﾔｰ1
370
     5
  6
Continuous
 62
     5
100
AcDbLine
 10
8555.66421
 20
1006.700392
 30
0.0
 11
8549.66421
 21
1022.700392
 31
0.0
  0
LINE
  5
4A
100
AcDbEntity
  8
ﾚｲﾔｰ1
370
     5
  6
Continuous
 62
     5
100
AcDbLine
 10
8549.66421
 20
1022.700392
 30
0.0
 11
8543.66421
 21
1006.700392
 31
0.0
  0
LINE
  5
4B
100
AcDbEntity
  8
ﾚｲﾔｰ1
370
     5
  6
Continuous
 62
     5
100
AcDbLine
 10
8549.66421
 20
1022.700392
 30
0.0
 11
8549.66421
 21
911.132953
 31
0.0
  0
CIRCLE
  5
4C
100
AcDbEntity
  8
ﾚｲﾔｰ1
370
    18
  6
Continuous
 62
     7
100
AcDbCircle
 10
8468.875136
 20
882.700392
 30
0.0
 40
4.25
210
0.0
220
0.0
230
1.0
  0
CIRCLE
  5
4D
100
AcDbEntity
  8
ﾚｲﾔｰ1
370
    18
  6
Continuous
 62
     7
100
AcDbCircle
 10
8468.875136
 20
902.700392
 30
0.0
 40
4.25
210
0.0
220
0.0
230
1.0
  0
ELLIPSE
  5
4E
100
AcDbEntity
  8
ﾚｲﾔｰ1
370
    18
  6
Continuous
 62
     7
100
AcDbEllipse
 10
8468.910685
 20
1022.700392
 30
0.0
 11
-0.000000000007276
 21
-4.2500000000059117
 31
0.0
210
0.0
220
0.0
230
-1.0
 40
1.0
 41
0.0
 42
6.2831853071795862
  0
LINE
  5
4F
100
AcDbEntity
  8
ﾚｲﾔｰ1
370
     5
  6
Continuous
 62
     5
100
AcDbLine
 10
8472.591293
 20
1024.825392
 30
0.0
 11
8533.654984
 21
1060.080531
 31
0.0
  0
ELLIPSE
  5
50
100
AcDbEntity
  8
ﾚｲﾔｰ1
370
    18
  6
Continuous
 62
     7
100
AcDbEllipse
 10
8468.875136
 20
862.700392
 30
0.0
 11
0.0
 21
4.2499999999999982
 31
0.0
210
0.0
220
0.0
230
-1.0
 40
1.0
 41
-1.5707963267948966
 42
4.7123889803846897
  0
ARC
  5
51
100
AcDbEntity
  8
ﾚｲﾔｰ1
370
    18
  6
Continuous
 62
     7
100
AcDbCircle
 10
8468.910685
 20
782.700392
 30
0.0
 40
4.25
210
0.0
220
0.0
230
1.0
100
AcDbArc
 50
0.0
 51
180.0
  0
CIRCLE
  5
52
100
AcDbEntity
  8
ﾚｲﾔｰ1
370
    18
  6
Continuous
 62
     7
100
AcDbCircle
 10
8468.875136
 20
842.700392
 30
0.0
 40
4.25
210
0.0
220
0.0
230
1.0
  0
CIRCLE
  5
53
100
AcDbEntity
  8
ﾚｲﾔｰ1
370
    18
  6
Continuous
 62
     7
100
AcDbCircle
 10
8468.910685
 20
802.700392
 30
0.0
 40
4.25
  0
CIRCLE
  5
54
100
AcDbEntity
  8
ﾚｲﾔｰ1
370
    18
  6
Continuous
 62
     7
100
AcDbCircle
 10
8468.875136
 20
1002.700392
 30
0.0
 40
4.25
210
0.0
220
0.0
230
1.0
  0
CIRCLE
  5
55
100
AcDbEntity
  8
ﾚｲﾔｰ1
370
    18
  6
Continuous
 62
     7
100
AcDbCircle
 10
8468.875136
 20
962.700392
 30
0.0
 40
4.25
210
0.0
220
0.0
230
1.0
  0
CIRCLE
  5
56
100
AcDbEntity
  8
ﾚｲﾔｰ1
370
    18
  6
Continuous
 62
     7
100
AcDbCircle
 10
8468.875136
 20
982.700392
 30
0.0
 40
4.25
210
0.0
220
0.0
230
1.0
  0
CIRCLE
  5
57
100
AcDbEntity
  8
ﾚｲﾔｰ1
370
    18
  6
Continuous
 62
     7
100
AcDbCircle
 10
8468.875136
 20
942.700392
 30
0.0
 40
4.25
210
0.0
220
0.0
230
1.0
  0
MTEXT
  5
58
100
AcDbEntity
  8
ﾚｲﾔｰ1
370
     5
  6
Continuous
 62
     5
100
AcDbMText
 10
8533.654984
 20
1077.505072
 30
0.0
 40
17.424541
 41
52.477815
 71
     1
 72
     1
  1
φ 8.5
  7
Style1
 11
1.0
 21
0.0
 31
0.0
 73
     1
 44
1.0
  0
LINE
  5
5A
100
AcDbEntity
  8
ﾚｲﾔｰ1
370
     5
  6
Continuous
 62
     5
100
AcDbLine
 10
8548.910685
 20
622.700392
 30
0.0
 11
8548.910685
 21
652.700388
 31
0.0
  0
LINE
  5
5B
100
AcDbEntity
  8
ﾚｲﾔｰ1
370
     5
  6
Continuous
 62
     5
100
AcDbLine
 10
8591.509207
 20
638.700392
 30
0.0
 11
8597.509207
 21
622.700392
 31
0.0
  0
LINE
  5
5C
100
AcDbEntity
  8
ﾚｲﾔｰ1
370
     5
  6
Continuous
 62
     5
100
AcDbLine
 10
8468.910685
 20
702.700384
 30
0.0
 11
8554.323392
 21
702.700384
 31
0.0
  0
LINE
  5
5D
100
AcDbEntity
  8
ﾚｲﾔｰ1
370
     5
  6
Continuous
 62
     5
100
AcDbLine
 10
8473.160685
 20
622.700392
 30
0.0
 11
8603.760049
 21
622.700392
 31
0.0
  0
LINE
  5
5E
100
AcDbEntity
  8
ﾚｲﾔｰ1
370
     5
  6
Continuous
 62
     5
100
AcDbLine
 10
8548.910685
 20
702.700384
 30
0.0
 11
8548.910685
 21
742.700388
 31
0.0
  0
MTEXT
  5
5F
100
AcDbEntity
  8
ﾚｲﾔｰ1
370
    40
  6
Continuous
 62
     5
100
AcDbMText
 10
8530.146134
 20
783.778087
 30
0.0
 40
17.424541
 41
17.492606
 71
     1
 72
     1
  1
20
  7
Style1
 11
0.0
 21
1.0
 31
0.0
 73
     1
 44
1.0
  0
MTEXT
  5
60
100
AcDbEntity
  8
ﾚｲﾔｰ1
370
     5
  6
Continuous
 62
     5
100
AcDbMText
 10
8530.146134
 20
867.401438
 30
0.0
 40
17.424541
 41
87.463029
 71
     1
 72
     1
  1
220=P20x11
  7
Style1
 11
0.0
 21
1.0
 31
0.0
 73
     1
 44
1.0
  0
LINE
  5
61
100
AcDbEntity
  8
ﾚｲﾔｰ1
370
     5
  6
Continuous
 62
     5
100
AcDbLine
 10
8549.66421
 20
802.700392
 30
0.0
 11
8549.66421
 21
911.132953
 31
0.0
  0
MTEXT
  5
62
100
AcDbEntity
  8
寸法線
370
    40
  6
Continuous
 62
     5
100
AcDbMText
 10
8576.559838
 20
819.695429
 30
0.0
 40
17.424541
 41
41.303939
 71
     1
 72
     1
  1
400
  7
Style1
 11
0.0
 21
1.0
 31
0.0
 73
     1
 44
1.0
  0
LINE
  5
63
100
AcDbEntity
  8
ﾚｲﾔｰ1
370
     5
  6
Continuous
 62
     5
100
AcDbLine
 10
8549.66421
 20
802.700392
 30
0.0
 11
8555.66421
 21
818.700392
 31
0.0
  0
LINE
  5
64
100
AcDbEntity
  8
ﾚｲﾔｰ1
370
     5
  6
Continuous
 62
     5
100
AcDbLine
 10
8543.66421
 20
818.700392
 30
0.0
 11
8549.66421
 21
802.700392
 31
0.0
  0
LINE
  5
65
100
AcDbEntity
  8
ﾚｲﾔｰ1
370
    18
  6
Continuous
 62
     7
100
AcDbLine
 10
8458.875136
 20
1032.700392
 30
0.0
 11
8484.875136
 21
1032.700392
 31
0.0
  0
ARC
  5
66
100
AcDbEntity
  8
ﾚｲﾔｰ1
370
    18
  6
Continuous
 62
     7
100
AcDbCircle
 10
8458.875136
 20
1028.700392
 30
0.0
 40
4.0
210
0.0
220
0.0
230
1.0
100
AcDbArc
 50
90.0
 51
180.0
  0
LINE
  5
67
100
AcDbEntity
  8
ﾚｲﾔｰ1
370
     5
  6
Continuous
 62
     5
100
AcDbLine
 10
8483.447699
 20
1038.021545
 30
0.0
 11
8472.591293
 21
1024.825392
 31
0.0
  0
LINE
  5
68
100
AcDbEntity
  8
ﾚｲﾔｰ1
370
     5
  6
Continuous
 62
     5
100
AcDbLine
 10
8472.591293
 20
1024.825392
 30
0.0
 11
8489.447699
 21
1027.62924
 31
0.0
  0
LINE
  5
69
100
AcDbEntity
  8
ﾚｲﾔｰ1
370
     5
  6
Continuous
 62
     5
100
AcDbLine
 10
8549.664209
 20
802.700392
 30
0.0
 11
8549.664209
 21
794.161542
 31
0.0
  0
LINE
  5
6A
100
AcDbEntity
  8
ﾚｲﾔｰ1
370
     5
  6
Continuous
 62
     5
100
AcDbLine
 10
8549.664209
 20
782.700392
 30
0.0
 11
8549.664209
 21
794.161542
 31
0.0
  0
LINE
  5
6B
100
AcDbEntity
  8
ﾚｲﾔｰ1
370
     5
  6
Continuous
 62
     5
100
AcDbLine
 10
8533.654984
 20
1060.080531
 30
0.0
 11
8586.132799
 21
1060.080531
 31
0.0
  0
LINE
  5
6C
100
AcDbEntity
  8
ﾚｲﾔｰ1
370
     5
  6
Continuous
 62
     5
100
AcDbLine
 10
8468.910685
 20
782.700392
 30
0.0
 11
8555.076917
 21
782.700392
 31
0.0
  0
LINE
  5
6D
100
AcDbEntity
  8
ﾚｲﾔｰ1
370
     5
  6
Continuous
 62
     5
100
AcDbLine
 10
8473.160685
 20
802.700392
 30
0.0
 11
8555.076917
 21
802.700392
 31
0.0
  0
LINE
  5
6E
100
AcDbEntity
  8
ﾚｲﾔｰ1
370
     5
  6
Continuous
 62
     5
100
AcDbLine
 10
8484.875136
 20
1022.700392
 30
0.0
 11
8603.760049
 21
1022.700392
 31
0.0
  0
CIRCLE
  5
6F
100
AcDbEntity
  8
ﾚｲﾔｰ1
370
    18
  6
Continuous
 62
     7
100
AcDbCircle
 10
8468.875136
 20
922.700392
 30
0.0
 40
4.25
210
0.0
220
0.0
230
1.0
  0
ELLIPSE
  5
70
100
AcDbEntity
  8
ﾚｲﾔｰ1
370
    18
  6
Continuous
 62
     7
100
AcDbEllipse
 10
8468.875136
 20
822.56256
 30
0.0
 11
-4.250000000007276
 21
0.000000000007276
 31
0.0
210
0.0
220
0.0
230
-0.9999999999999999
 40
1.0
 41
0.0
 42
6.2831853071795862
  0
LINE
  5
71
100
AcDbEntity
  8
ﾚｲﾔｰ1
370
     5
  6
Continuous
 62
     5
100
AcDbLine
 10
8603.509207
 20
1006.700392
 30
0.0
 11
8597.509207
 21
1022.700392
 31
0.0
  0
LINE
  5
72
100
AcDbEntity
  8
ﾚｲﾔｰ1
370
     5
  6
Continuous
 62
     5
100
AcDbLine
 10
8597.509207
 20
1022.700392
 30
0.0
 11
8591.509207
 21
1006.700392
 31
0.0
  0
MTEXT
  5
73
100
AcDbEntity
  8
ﾚｲﾔｰ1
370
     5
  6
Continuous
 62
     5
100
AcDbMText
 10
8461.268024
 20
578.045774
 30
0.0
 40
17.424541
 41
17.492606
 71
     1
 72
     1
  1
30
  7
Style1
 73
     1
 44
1.0
  0
LINE
  5
74
100
AcDbEntity
  8
ﾚｲﾔｰ1
370
     5
  6
Continuous
 62
     5
100
AcDbLine
 10
8436.494244
 20
558.736442
 30
0.0
 11
8503.390197
 21
558.736442
 31
0.0
  0
LINE
  5
75
100
AcDbEntity
  8
ﾚｲﾔｰ1
370
     5
  6
Continuous
 62
     5
100
AcDbLine
 10
8484.875136
 20
558.736442
 30
0.0
 11
8500.875136
 21
552.736442
 31
0.0
  0
LINE
  5
76
100
AcDbEntity
  8
ﾚｲﾔｰ1
370
     5
  6
Continuous
 62
     5
100
AcDbLine
 10
8554.910685
 20
666.700384
 30
0.0
 11
8548.910685
 21
682.700384
 31
0.0
  0
LINE
  5
77
100
AcDbEntity
  8
ﾚｲﾔｰ1
370
     5
  6
Continuous
 62
     5
100
AcDbLine
 10
8548.910685
 20
682.700384
 30
0.0
 11
8542.910685
 21
666.700384
 31
0.0
  0
LINE
  5
78
100
AcDbEntity
  8
ﾚｲﾔｰ1
370
     5
  6
Continuous
 62
     5
100
AcDbLine
 10
8548.910685
 20
682.700384
 30
0.0
 11
8548.910685
 21
652.700388
 31
0.0
  0
LINE
  5
79
100
AcDbEntity
  8
ﾚｲﾔｰ1
370
     5
  6
Continuous
 62
     5
100
AcDbLine
 10
8548.910685
 20
682.700384
 30
0.0
 11
8548.910685
 21
702.700384
 31
0.0
  0
LINE
  5
7A
100
AcDbEntity
  8
ﾚｲﾔｰ1
370
     5
  6
Continuous
 62
     5
100
AcDbLine
 10
8484.875136
 20
601.372838
 30
0.0
 11
8484.875136
 21
551.851371
 31
0.0
  0
ARC
  5
7B
100
AcDbEntity
  8
ﾚｲﾔｰ1
370
    18
  6
Continuous
 62
     7
100
AcDbCircle
 10
8468.910685
 20
622.700392
 30
0.0
 40
4.25
210
0.0
220
0.0
230
1.0
100
AcDbArc
 50
180.0
 51
0.0
  0
LINE
  5
7C
100
AcDbEntity
  8
ﾚｲﾔｰ1
370
     5
  6
Continuous
 62
     5
100
AcDbLine
 10
8542.910685
 20
718.700384
 30
0.0
 11
8548.910685
 21
702.700384
 31
0.0
  0
LINE
  5
7D
100
AcDbEntity
  8
ﾚｲﾔｰ1
370
     5
  6
Continuous
 62
     5
100
AcDbLine
 10
8548.910685
 20
702.700384
 30
0.0
 11
8554.910685
 21
718.700384
 31
0.0
  0
LINE
  5
7E
100
AcDbEntity
  8
ﾚｲﾔｰ1
370
     5
  6
Continuous
 62
     5
100
AcDbLine
 10
8454.875136
 20
601.372838
 30
0.0
 11
8454.875136
 21
551.851371
 31
0.0
  0
MTEXT
  5
7F
100
AcDbEntity
  8
ﾚｲﾔｰ1
370
    40
  6
Continuous
 62
     5
100
AcDbMText
 10
8530.146134
 20
683.954081
 30
0.0
 40
17.424541
 41
17.492606
 71
     1
 72
     1
  1
20
  7
Style1
 11
0.0
 21
1.0
 31
0.0
 73
     1
 44
1.0
  0
MTEXT
  5
80
100
AcDbEntity
  8
ﾚｲﾔｰ1
370
    40
  6
Continuous
 62
     5
100
AcDbMText
 10
8530.146134
 20
643.954085
 30
0.0
 40
17.424541
 41
17.492606
 71
     1
 72
     1
  1
60
  7
Style1
 11
0.0
 21
1.0
 31
0.0
 73
     1
 44
1.0
  0
LINE
  5
81
100
AcDbEntity
  8
ﾚｲﾔｰ1
370
     5
  6
Continuous
 62
     5
100
AcDbLine
 10
8597.509207
 20
622.700392
 30
0.0
 11
8603.509207
 21
638.700392
 31
0.0
  0
ELLIPSE
  5
82
100
AcDbEntity
  8
ﾚｲﾔｰ1
370
    18
  6
Continuous
 62
     7
100
AcDbEllipse
 10
8458.875136
 20
616.700392
 30
0.0
 11
-0.0000000000000002
 21
-3.9999999999999991
 31
0.0
210
0.0
220
0.0
230
1.0
 40
1.0
 41
-1.5707963267948966
 42
0.0000000000017621
  0
LINE
  5
83
100
AcDbEntity
  8
ﾚｲﾔｰ1
370
    18
  6
Continuous
 62
     7
100
AcDbLine
 10
8458.875136
 20
612.700392
 30
0.0
 11
8484.875136
 21
612.700392
 31
0.0
  0
LINE
  5
84
100
AcDbEntity
  8
ﾚｲﾔｰ1
370
    18
  6
Continuous
 62
     7
100
AcDbLine
 10
8464.660685
 20
622.700392
 30
0.0
 11
8464.660685
 21
682.700384
 31
0.0
  0
LINE
  5
85
100
AcDbEntity
  8
ﾚｲﾔｰ1
370
     5
  6
Continuous
 62
     5
100
AcDbLine
 10
8468.910685
 20
682.700384
 30
0.0
 11
8554.323392
 21
682.700384
 31
0.0
  0
MTEXT
  5
86
100
AcDbEntity
  8
寸法線
370
    40
  6
Continuous
 62
     5
100
AcDbMText
 10
8530.146134
 20
733.954085
 30
0.0
 40
17.424541
 41
17.492606
 71
     1
 72
     1
  1
80
  7
Style1
 11
0.0
 21
1.0
 31
0.0
 73
     1
 44
1.0
  0
LINE
  5
87
100
AcDbEntity
  8
ﾚｲﾔｰ1
370
    18
  6
Continuous
 62
     7
100
AcDbLine
 10
8473.160685
 20
622.700392
 30
0.0
 11
8473.160685
 21
682.700384
 31
0.0
  0
ARC
  5
88
100
AcDbEntity
  8
ﾚｲﾔｰ1
370
    18
  6
Continuous
 62
     7
100
AcDbCircle
 10
8468.910685
 20
682.700384
 30
0.0
 40
4.25
210
0.0
220
0.0
230
1.0
100
AcDbArc
 50
0.0
 51
180.0
  0
ARC
  5
89
100
AcDbEntity
  8
ﾚｲﾔｰ1
370
    18
  6
Continuous
 62
     7
100
AcDbCircle
 10
8468.910685
 20
702.700384
 30
0.0
 40
4.25
210
0.0
220
0.0
230
1.0
100
AcDbArc
 50
-180.0
 51
0.0
  0
LINE
  5
8A
100
AcDbEntity
  8
ﾚｲﾔｰ1
370
     5
  6
Continuous
 62
     5
100
AcDbLine
 10
8542.910685
 20
638.700392
 30
0.0
 11
8548.910685
 21
622.700392
 31
0.0
  0
LINE
  5
8B
100
AcDbEntity
  8
ﾚｲﾔｰ1
370
     5
  6
Continuous
 62
     5
100
AcDbLine
 10
8548.910685
 20
622.700392
 30
0.0
 11
8554.910685
 21
638.700392
 31
0.0
  0
LINE
  5
8C
100
AcDbEntity
  8
ﾚｲﾔｰ1
370
    18
  6
Continuous
 62
     7
100
AcDbLine
 10
8071.17791
 20
969.753393
 30
0.0
 11
8024.516218
 21
826.1439
 31
0.0
  0
LINE
  5
8D
100
AcDbEntity
  8
ﾚｲﾔｰ1
370
    18
  6
Continuous
 62
     7
100
AcDbLine
 10
8034.469322
 20
785.583011
 30
0.0
 11
8033.696777
 21
783.205371
 31
0.0
  0
LINE
  5
8E
100
AcDbEntity
  8
ﾚｲﾔｰ1
370
    18
  6
Continuous
 62
     7
100
AcDbLine
 10
8034.980854
 20
780.685222
 30
0.0
 11
8046.393529
 21
776.977008
 31
0.0
  0
LINE
  5
8F
100
AcDbEntity
  8
ﾚｲﾔｰ1
370
    18
  6
Continuous
 62
     7
100
AcDbLine
 10
8058.457156
 20
979.143942
 30
0.0
 11
8067.967718
 21
976.053763
 31
0.0
  0
LINE
  5
90
100
AcDbEntity
  8
ﾚｲﾔｰ1
370
    18
  6
Continuous
 62
     7
100
AcDbLine
 10
8046.273817
 20
788.581993
 30
0.0
 11
8038.665367
 21
791.054136
 31
0.0
  0
LINE
  5
91
100
AcDbEntity
  8
ﾚｲﾔｰ1
370
    18
  6
Continuous
 62
     7
100
AcDbLine
 10
8047.509888
 20
792.386218
 30
0.0
 11
8039.901438
 21
794.858361
 31
0.0
  0
ELLIPSE
  5
92
100
AcDbEntity
  8
ﾚｲﾔｰ1
370
    18
  6
Continuous
 62
     7
100
AcDbEllipse
 10
8047.011565
 20
778.879121
 30
0.0
 11
-0.6180356655132695
 21
-1.9021124877760436
 31
0.0
210
0.0
220
0.0
230
-1.0
 40
1.0
 41
-1.5707963267948966
 42
-0.0000000000011369
  0
ELLIPSE
  5
93
100
AcDbEntity
  8
ﾚｲﾔｰ1
370
    18
  6
Continuous
 62
     7
100
AcDbEllipse
 10
8034.94485
 20
785.428502
 30
0.0
 11
0.1545089163794774
 21
0.4755281219450752
 31
0.0
210
0.0
220
0.0
230
1.0
 40
1.0
 41
0.0
 42
1.5707963267948966
  0
LINE
  5
94
100
AcDbEntity
  8
ﾚｲﾔｰ1
370
    18
  6
Continuous
 62
     7
100
AcDbLine
 10
8039.413607
 20
800.799911
 30
0.0
 11
8034.77834
 21
786.534067
 31
0.0
  0
LINE
  5
95
100
AcDbEntity
  8
ﾚｲﾔｰ1
370
    18
  6
Continuous
 62
     7
100
AcDbLine
 10
8042.742304
 20
799.718349
 30
0.0
 11
8039.413607
 21
800.799911
 31
0.0
  0
LINE
  5
96
100
AcDbEntity
  8
ﾚｲﾔｰ1
370
    18
  6
Continuous
 62
     7
100
AcDbLine
 10
8038.107037
 20
785.452505
 30
0.0
 11
8034.77834
 21
786.534067
 31
0.0
  0
LINE
  5
97
100
AcDbEntity
  8
ﾚｲﾔｰ1
370
    18
  6
Continuous
 62
     7
100
AcDbLine
 10
8058.184212
 20
806.792773
 30
0.0
 11
8048.913677
 21
778.261085
 31
0.0
  0
LINE
  5
98
100
AcDbEntity
  8
ﾚｲﾔｰ1
370
    18
  6
Continuous
 62
     7
100
AcDbLine
 10
8042.896813
 20
800.193877
 30
0.0
 11
8041.042706
 21
794.487539
 31
0.0
  0
LINE
  5
99
100
AcDbEntity
  8
ﾚｲﾔｰ1
370
    18
  6
Continuous
 62
     7
100
AcDbLine
 10
8039.853433
 20
801.182734
 30
0.0
 11
8042.896813
 21
800.193877
 31
0.0
  0
INSERT
  5
A3
100
AcDbEntity
  8
ﾚｲﾔｰ1
370
    18
  6
Continuous
 62
     7
100
AcDbBlockReference
  2
C0
 10
0.0
 20
0.0
 30
0.0
  0
LINE
  5
A4
100
AcDbEntity
  8
ﾚｲﾔｰ1
370
    18
  6
Continuous
 62
     7
100
AcDbLine
 10
8039.806635
 20
790.683314
 30
0.0
 11
8037.952528
 21
784.976977
 31
0.0
  0
ELLIPSE
  5
A5
100
AcDbEntity
  8
ﾚｲﾔｰ1
370
    18
  6
Continuous
 62
     7
100
AcDbEllipse
 10
8035.59889
 20
782.587335
 30
0.0
 11
-0.6180356655063498
 21
-1.902112487778292
 31
0.0
210
0.0
220
0.0
230
1.0
 40
1.0
 41
-1.5707963267948966
 42
-0.0000000000025011
  0
LINE
  5
A6
100
AcDbEntity
  8
ﾚｲﾔｰ1
370
    18
  6
Continuous
 62
     7
100
AcDbLine
 10
8035.099359
 20
785.90403
 30
0.0
 11
8037.952528
 21
784.976977
 31
0.0
  0
ELLIPSE
  5
A7
100
AcDbEntity
  8
ﾚｲﾔｰ1
370
    18
  6
Continuous
 62
     7
100
AcDbEllipse
 10
8066.422629
 20
971.298482
 30
0.0
 11
4.7552812194344742
 21
-1.5450891638005086
 31
0.0
210
0.0
220
0.0
230
-0.9999999999999999
 40
1.0
 41
-1.5707963267948966
 42
-0.0000000000072304
  0
LINE
  5
A8
100
AcDbEntity
  8
ﾚｲﾔｰ1
370
    18
  6
Continuous
 62
     7
100
AcDbLine
 10
8027.084371
 20
821.103604
 30
0.0
 11
8055.616058
 21
811.833069
 31
0.0
  0
ELLIPSE
  5
A9
100
AcDbEntity
  8
ﾚｲﾔｰ1
370
    18
  6
Continuous
 62
     7
100
AcDbEllipse
 10
8054.379987
 20
808.028844
 30
0.0
 11
3.8042249755511741
 21
-1.2360713310293503
 31
0.0
210
0.0
220
0.0
230
1.0
 40
1.0
 41
0.0
 42
1.5707963267947829
  0
LINE
  5
AA
100
AcDbEntity
  8
ﾚｲﾔｰ1
370
    18
  6
Continuous
 62
     7
100
AcDbLine
 10
8036.965769
 20
785.823326
 30
0.0
 11
8041.601036
 21
800.08917
 31
0.0
  0
LINE
  5
AB
100
AcDbEntity
  8
ﾚｲﾔｰ1
370
     5
  6
Continuous
 62
     5
100
AcDbLine
 10
8500.875136
 20
564.736442
 30
0.0
 11
8484.875136
 21
558.736442
 31
0.0
  0
LINE
  5
AC
100
AcDbEntity
  8
ﾚｲﾔｰ1
370
     5
  6
Continuous
 62
     5
100
AcDbLine
 10
8438.875136
 20
552.736442
 30
0.0
 11
8454.875136
 21
558.736442
 31
0.0
  0
LINE
  5
AD
100
AcDbEntity
  8
ﾚｲﾔｰ1
370
     5
  6
Continuous
 62
     5
100
AcDbLine
 10
8454.875136
 20
558.736442
 30
0.0
 11
8438.875136
 21
564.736442
 31
0.0
  0
LINE
  5
AE
100
AcDbEntity
  8
ﾚｲﾔｰ1
370
    18
  6
Continuous
 62
     7
100
AcDbLine
 10
7955.203518
 20
612.821985
 30
0.0
 11
7954.786377
 21
612.957522
 31
0.0
  0
ARC
  5
AF
100
AcDbEntity
  8
ﾚｲﾔｰ1
370
    18
  6
Continuous
 62
     7
100
AcDbCircle
 10
7960.927245
 20
605.704915
 30
0.0
 40
9.503188
100
AcDbArc
 50
130.254982
 51
-166.255083
  0
LINE
  5
B0
100
AcDbEntity
  8
ﾚｲﾔｰ1
370
    18
  6
Continuous
 62
     7
100
AcDbLine
 10
7981.449063
 20
621.433104
 30
0.0
 11
7982.114809
 21
621.216789
 31
0.0
  0
LINE
  5
B1
100
AcDbEntity
  8
レイヤー 1
370
    18
  6
Continuous
 62
     7
100
AcDbLine
 10
8043.367383
 20
398.763623
 30
0.0
 11
7987.23742
 21
544.662711
 31
0.0
  0
LINE
  5
B2
100
AcDbEntity
  8
ﾚｲﾔｰ1
370
    18
  6
CENTER2
 62
     3
100
AcDbLine
 10
8034.108234
 20
491.556108
 30
0.0
 11
8025.378782
 21
488.197733
 31
0.0
  0
INSERT
  5
BA
100
AcDbEntity
  8
ﾚｲﾔｰ1
370
    18
  6
Continuous
 62
     7
100
AcDbBlockReference
  2
C1
 10
0.0
 20
0.0
 30
0.0
  0
INSERT
  5
C2
100
AcDbEntity
  8
ﾚｲﾔｰ1
370
    18
  6
Continuous
 62
     7
100
AcDbBlockReference
  2
C2
 10
0.0
 20
0.0
 30
0.0
  0
LINE
  5
C3
100
AcDbEntity
  8
ﾚｲﾔｰ1
370
    18
  6
Continuous
 62
     7
100
AcDbLine
 10
8048.093966
 20
443.013929
 30
0.0
 11
8047.813972
 21
442.90621
 31
0.0
  0
ELLIPSE
  5
C4
100
AcDbEntity
  8
ﾚｲﾔｰ1
370
    18
  6
Continuous
 62
     7
100
AcDbEllipse
 10
8047.375842
 20
444.880556
 30
0.0
 11
1.8666272100277148
 21
0.7181245426694159
 31
0.0
210
0.0
220
0.0
230
1.0
 40
1.0
 41
-1.5707963267948966
 42
0.0
  0
LINE
  5
C5
100
AcDbEntity
  8
ﾚｲﾔｰ1
370
    18
  6
Continuous
 62
     7
100
AcDbLine
 10
8046.629066
 20
445.986145
 30
0.0
 11
8048.775688
 21
446.811989
 31
0.0
  0
LINE
  5
C6
100
AcDbEntity
  8
ﾚｲﾔｰ1
370
    18
  6
Continuous
 62
     7
100
AcDbLine
 10
8027.239704
 20
496.38508
 30
0.0
 11
8029.386325
 21
497.210923
 31
0.0
  0
ELLIPSE
  5
C7
100
AcDbEntity
  8
ﾚｲﾔｰ1
370
    18
  6
Continuous
 62
     7
100
AcDbEllipse
 10
8027.052917
 20
497.706106
 30
0.0
 11
1.8666272100277148
 21
0.7181245426694159
 31
0.0
210
0.0
220
0.0
230
-1.0
 40
1.0
 41
-1.5707963267948966
 42
0.0
  0
LINE
  5
C8
100
AcDbEntity
  8
ﾚｲﾔｰ1
370
    18
  6
Continuous
 62
     7
100
AcDbLine
 10
8049.24247
 20
445.598678
 30
0.0
 11
8039.081006
 21
472.011456
 31
0.0
  0
LINE
  5
C9
100
AcDbEntity
  8
ﾚｲﾔｰ1
370
    18
  6
Continuous
 62
     7
100
AcDbLine
 10
8028.919543
 20
498.424233
 30
0.0
 11
8039.081006
 21
472.011456
 31
0.0
  0
LINE
  5
CA
100
AcDbEntity
  8
ﾚｲﾔｰ1
370
     5
  6
Continuous
 62
     5
100
AcDbLine
 10
8118.491124
 20
481.288786
 30
0.0
 11
8022.558407
 21
575.795928
 31
0.0
  0
SOLID
  5
CB
100
AcDbEntity
  8
ﾚｲﾔｰ1
 62
     5
100
AcDbTrace
 10
8043.866291
 20
563.227154
 30
0.0
 11
8022.558407
 21
575.795928
 31
0.0
 12
8022.558407
 22
575.795928
 32
0.0
 13
8035.444764
 23
554.678594
 33
0.0
  0
LINE
  5
CC
100
AcDbEntity
  8
ﾚｲﾔｰ1
370
    18
  6
CENTER2
 62
     3
100
AcDbLine
 10
8048.470725
 20
454.223564
 30
0.0
 11
8039.741273
 21
450.865189
 31
0.0
  0
ELLIPSE
  5
CD
100
AcDbEntity
  8
ﾚｲﾔｰ1
370
    18
  6
Continuous
 62
     7
100
AcDbEllipse
 10
8026.078712
 20
820.273755
 30
0.0
 11
-0.9510562438855
 21
0.309017832764396
 31
0.0
210
0.0
220
0.0
230
1.0
 40
1.0
 41
-1.5707963267948966
 42
0.0
  0
LINE
  5
CE
100
AcDbEntity
  8
ﾚｲﾔｰ1
370
    18
  6
Continuous
 62
     7
100
AcDbLine
 10
8024.516218
 20
826.1439
 30
0.0
 11
8018.644879
 21
808.073832
 31
0.0
  0
ARC
  5
CF
100
AcDbEntity
  8
ﾚｲﾔｰ1
370
    18
  6
Continuous
 62
     7
100
AcDbCircle
 10
8028.320442
 20
824.907829
 30
0.0
 40
4.0
100
AcDbArc
 50
161.999949
 51
-108.000051
  0
LINE
  5
D0
100
AcDbEntity
  8
ﾚｲﾔｰ1
370
     5
  6
Continuous
 62
     5
100
AcDbLine
 10
7946.704368
 20
779.422131
 30
0.0
 11
7650.810134
 21
779.422131
 31
0.0
  0
LINE
  5
D1
100
AcDbEntity
  8
ﾚｲﾔｰ1
370
    18
  6
Continuous
 62
     7
100
AcDbLine
 10
8024.447817
 20
818.490449
 30
0.0
 11
8025.127656
 21
820.582772
 31
0.0
  0
LINE
  5
D2
100
AcDbEntity
  8
ﾚｲﾔｰ1
370
    18
  6
Continuous
 62
     7
100
AcDbLine
 10
8024.447817
 20
818.490449
 30
0.0
 11
8043.468942
 21
812.310092
 31
0.0
  0
ELLIPSE
  5
D3
100
AcDbEntity
  8
ﾚｲﾔｰ1
370
    18
  6
Continuous
 62
     7
100
AcDbEllipse
 10
8043.197725
 20
814.711434
 30
0.0
 11
0.9510562438855
 21
-0.309017832764396
 31
0.0
210
0.0
220
0.0
230
-1.0
 40
1.0
 41
-1.5707963267948966
 42
0.0
  0
LINE
  5
D4
100
AcDbEntity
  8
ﾚｲﾔｰ1
370
    18
  6
Continuous
 62
     7
100
AcDbLine
 10
8043.468942
 20
812.310092
 30
0.0
 11
8044.148781
 21
814.402416
 31
0.0
  0
LINE
  5
D5
100
AcDbEntity
  8
ﾚｲﾔｰ1
370
    18
  6
Continuous
 62
     7
100
AcDbLine
 10
8026.38773
 20
821.224811
 30
0.0
 11
8043.506742
 21
815.66249
 31
0.0
  0
LINE
  5
D6
100
AcDbEntity
  8
ﾚｲﾔｰ1
370
    18
  6
Continuous
 62
     7
100
AcDbLine
 10
7991.982493
 20
555.468268
 30
0.0
 11
7991.982493
 21
556.267984
 31
0.0
  0
LINE
  5
D7
100
AcDbEntity
  8
ﾚｲﾔｰ1
370
    18
  6
Continuous
 62
     7
100
AcDbLine
 10
7990.232928
 20
558.018062
 30
0.0
 11
7989.432187
 21
558.018062
 31
0.0
  0
LINE
  5
D8
100
AcDbEntity
  8
ﾚｲﾔｰ1
370
    18
  6
Continuous
 62
     7
100
AcDbLine
 10
7989.432187
 20
558.018062
 30
0.0
 11
7989.432187
 21
559.218143
 31
0.0
  0
LINE
  5
D9
100
AcDbEntity
  8
ﾚｲﾔｰ1
370
    18
  6
Continuous
 62
     7
100
AcDbLine
 10
7989.432187
 20
559.218143
 30
0.0
 11
7990.232928
 21
559.218143
 31
0.0
  0
LINE
  5
DA
100
AcDbEntity
  8
ﾚｲﾔｰ1
370
    18
  6
Continuous
 62
     7
100
AcDbLine
 10
7986.045668
 20
544.970294
 30
0.0
 11
7959.416091
 21
553.622794
 31
0.0
  0
LINE
  5
DB
100
AcDbEntity
  8
ﾚｲﾔｰ1
370
    18
  6
Continuous
 62
     7
100
AcDbLine
 10
7959.196375
 20
545.503644
 30
0.0
 11
7959.613516
 21
545.368107
 31
0.0
  0
LINE
  5
DC
100
AcDbEntity
  8
ﾚｲﾔｰ1
370
    18
  6
Continuous
 62
     7
100
AcDbLine
 10
7938.180228
 20
576.610141
 30
0.0
 11
7928.669666
 21
579.700319
 31
0.0
  0
LINE
  5
DD
100
AcDbEntity
  8
ﾚｲﾔｰ1
370
    18
  6
Continuous
 62
     7
100
AcDbLine
 10
7892.216987
 20
389.451585
 30
0.0
 11
7893.017728
 21
389.451585
 31
0.0
  0
LINE
  5
DE
100
AcDbEntity
  8
ﾚｲﾔｰ1
370
    18
  6
Continuous
 62
     7
100
AcDbLine
 10
7892.216987
 20
388.251504
 30
0.0
 11
7892.216987
 21
389.451585
 31
0.0
  0
ARC
  5
DF
100
AcDbEntity
  8
ﾚｲﾔｰ1
370
    18
  6
Continuous
 62
     7
100
AcDbCircle
 10
7948.566532
 20
567.662665
 30
0.0
 40
9.503188
100
AcDbArc
 50
130.254982
 51
-166.255083
  0
ELLIPSE
  5
E0
100
AcDbEntity
  8
ﾚｲﾔｰ1
370
    18
  6
Continuous
 62
     7
100
AcDbEllipse
 10
7940.63498
 20
561.512651
 30
0.0
 11
-1.902112487770987
 21
0.6180356655288395
 31
0.0
210
0.0
220
0.0
230
-1.0
 40
1.0
 41
-1.5707963267948966
 42
0.0
  0
LINE
  5
E1
100
AcDbEntity
  8
ﾚｲﾔｰ1
370
    18
  6
Continuous
 62
     7
100
AcDbLine
 10
7940.016944
 20
559.610539
 30
0.0
 11
7940.302261
 21
559.517833
 31
0.0
  0
ELLIPSE
  5
E2
100
AcDbEntity
  8
ﾚｲﾔｰ1
370
    18
  6
Continuous
 62
     7
100
AcDbEllipse
 10
7939.725318
 20
581.365422
 30
0.0
 11
4.7552812194433658
 21
-1.5450891637731543
 31
0.0
210
0.0
220
0.0
230
-1.0
 40
1.0
 41
0.0
 42
1.5707963267982616
  0
ELLIPSE
  5
E3
100
AcDbEntity
  8
ﾚｲﾔｰ1
370
    18
  6
Continuous
 62
     7
100
AcDbEllipse
 10
7964.59729
 20
586.858739
 30
0.0
 11
9.2310466641574749
 21
2.2579547524474037
 31
0.0
210
0.0
220
0.0
230
-1.0
 40
1.0
 41
0.0
 42
0.8986505184784739
  0
LINE
  5
E4
100
AcDbEntity
  8
ﾚｲﾔｰ1
370
    18
  6
Continuous
 62
     7
100
AcDbLine
 10
7938.732866
 20
562.130684
 30
0.0
 11
7947.478072
 21
589.045579
 31
0.0
  0
LINE
  5
E5
100
AcDbEntity
  8
レイヤー 1
370
    18
  6
Continuous
 62
     7
100
AcDbLine
 10
7970.874055
 20
581.44374
 30
0.0
 11
7973.964234
 21
590.954302
 31
0.0
  0
LINE
  5
E6
100
AcDbEntity
  8
ﾚｲﾔｰ1
370
    18
  6
Continuous
 62
     7
100
AcDbLine
 10
7958.743425
 20
617.244547
 30
0.0
 11
7959.028742
 21
617.151842
 31
0.0
  0
ELLIPSE
  5
E7
100
AcDbEntity
  8
ﾚｲﾔｰ1
370
    18
  6
Continuous
 62
     7
100
AcDbEllipse
 10
7958.125389
 20
615.342435
 30
0.0
 11
-1.902112487770987
 21
0.6180356655288395
 31
0.0
210
0.0
220
0.0
230
1.0
 40
1.0
 41
-1.5707963267948966
 42
0.0
  0
LINE
  5
E8
100
AcDbEntity
  8
ﾚｲﾔｰ1
370
    18
  6
Continuous
 62
     7
100
AcDbLine
 10
7958.008983
 20
614.013356
 30
0.0
 11
7955.821553
 21
614.724097
 31
0.0
  0
LINE
  5
E9
100
AcDbEntity
  8
ﾚｲﾔｰ1
370
    18
  6
Continuous
 62
     7
100
AcDbLine
 10
7957.15033
 20
618.813639
 30
0.0
 11
7959.337759
 21
618.102898
 31
0.0
  0
ARC
  5
EA
100
AcDbEntity
  8
ﾚｲﾔｰ1
370
    18
  6
Continuous
 62
     7
100
AcDbCircle
 10
7966.540879
 20
631.534394
 30
0.0
 40
5.0
100
AcDbArc
 50
161.999929
 51
-140.683689
  0
ELLIPSE
  5
EB
100
AcDbEntity
  8
ﾚｲﾔｰ1
370
    18
  6
Continuous
 62
     7
100
AcDbEllipse
 10
7980.569713
 20
616.46151
 30
0.0
 11
1.5450891637865012
 21
4.7552812194423533
 31
0.0
210
0.0
220
0.0
230
-0.9999999999999999
 40
1.0
 41
0.0
 42
1.5707963267918041
  0
LINE
  5
EC
100
AcDbEntity
  8
ﾚｲﾔｰ1
370
    18
  6
Continuous
 62
     7
100
AcDbLine
 10
7995.316201
 20
573.501982
 30
0.0
 11
7968.686626
 21
582.154481
 31
0.0
  0
LINE
  5
ED
100
AcDbEntity
  8
ﾚｲﾔｰ1
370
    18
  6
Continuous
 62
     7
100
AcDbLine
 10
7976.005083
 20
579.776563
 30
0.0
 11
7991.754968
 21
585.835823
 31
0.0
  0
LINE
  5
EE
100
AcDbEntity
  8
ﾚｲﾔｰ1
370
    18
  6
Continuous
 62
     7
100
AcDbLine
 10
7952.113339
 20
603.311422
 30
0.0
 11
7955.203518
 21
612.821985
 31
0.0
  0
ARC
  5
EF
100
AcDbEntity
  8
ﾚｲﾔｰ1
370
    18
  6
Continuous
 62
     7
100
AcDbCircle
 10
7989.135844
 20
554.480857
 30
0.0
 40
10.0
210
0.0
220
0.0
230
1.0
100
AcDbArc
 50
-108.000051
 51
-18.000051
  0
ELLIPSE
  5
F0
100
AcDbEntity
  8
ﾚｲﾔｰ1
370
    18
  6
Continuous
 62
     7
100
AcDbEllipse
 10
7992.11403
 20
584.902509
 30
0.0
 11
0.9333136050135896
 21
0.3590622713354041
 31
0.0
210
0.0
220
0.0
230
-1.0
 40
1.0
 41
-1.5707963267948966
 42
0.0
  0
ARC
  5
F1
100
AcDbEntity
  8
ﾚｲﾔｰ1
370
    18
  6
Continuous
 62
     7
100
AcDbCircle
 10
7994.932139
 20
560.96822
 30
0.0
 40
1.749565
100
AcDbArc
 50
180.0
 51
-90.0
  0
LINE
  5
F2
100
AcDbEntity
  8
ﾚｲﾔｰ1
370
    18
  6
Continuous
 62
     7
100
AcDbLine
 10
7995.73288
 20
559.218143
 30
0.0
 11
7995.73288
 21
558.018062
 31
0.0
  0
LINE
  5
F3
100
AcDbEntity
  8
ﾚｲﾔｰ1
370
    18
  6
Continuous
 62
     7
100
AcDbLine
 10
7993.182574
 20
556.267984
 30
0.0
 11
7993.182574
 21
555.468268
 31
0.0
  0
LINE
  5
F4
100
AcDbEntity
  8
ﾚｲﾔｰ1
370
    18
  6
Continuous
 62
     7
100
AcDbLine
 10
7952.113339
 20
603.311422
 30
0.0
 11
7951.696199
 21
603.44696
 31
0.0
  0
LINE
  5
F5
100
AcDbEntity
  8
ﾚｲﾔｰ1
370
    18
  6
Continuous
 62
     7
100
AcDbLine
 10
7975.340412
 20
597.131367
 30
0.0
 11
7977.242525
 21
596.513332
 31
0.0
  0
ELLIPSE
  5
F6
100
AcDbEntity
  8
ﾚｲﾔｰ1
370
    18
  6
Continuous
 62
     7
100
AcDbEllipse
 10
7977.86056
 20
598.415444
 30
0.0
 11
1.9021124877719506
 21
-0.6180356655258691
 31
0.0
210
0.0
220
0.0
230
1.0
 40
1.0
 41
-1.5707963267948966
 42
0.000000000007276
  0
LINE
  5
F7
100
AcDbEntity
  8
ﾚｲﾔｰ1
370
    18
  6
Continuous
 62
     7
100
AcDbLine
 10
7971.776804
 20
591.665043
 30
0.0
 11
7973.964234
 21
590.954302
 31
0.0
  0
ELLIPSE
  5
F8
100
AcDbEntity
  8
ﾚｲﾔｰ1
370
    18
  6
Continuous
 62
     7
100
AcDbEllipse
 10
7975.958448
 20
599.03348
 30
0.0
 11
-1.9021124877719506
 21
0.6180356655258691
 31
0.0
210
0.0
220
0.0
230
-1.0
 40
1.0
 41
-1.5707970876577333
 42
-0.5548110840404101
  0
LINE
  5
F9
100
AcDbEntity
  8
ﾚｲﾔｰ1
370
    18
  6
Continuous
 62
     7
100
AcDbLine
 10
7973.411196
 20
589.252231
 30
0.0
 11
7973.828336
 21
589.116694
 31
0.0
  0
LINE
  5
FA
100
AcDbEntity
  8
レイヤー 1
370
    18
  6
Continuous
 62
     7
100
AcDbLine
 10
7993.837281
 20
583.208281
 30
0.0
 11
7980.83662
 21
578.206697
 31
0.0
  0
ELLIPSE
  5
FB
100
AcDbEntity
  8
ﾚｲﾔｰ1
370
    18
  6
Continuous
 62
     7
100
AcDbEllipse
 10
7953.472648
 20
552.620714
 30
0.0
 11
9.5019377116550459
 21
-0.1541489666792586
 31
0.0
210
0.0
220
0.0
230
-1.0
 40
1.0
 41
0.0
 42
0.8519928710879748
  0
LINE
  5
FC
100
AcDbEntity
  8
ﾚｲﾔｰ1
370
    18
  6
Continuous
 62
     7
100
AcDbLine
 10
7941.32202
 20
562.656319
 30
0.0
 11
7939.13459
 21
563.36706
 31
0.0
  0
LINE
  5
FD
100
AcDbEntity
  8
ﾚｲﾔｰ1
370
    18
  6
Continuous
 62
     7
100
AcDbLine
 10
7958.513342
 20
543.40149
 30
0.0
 11
7961.60352
 21
552.912053
 31
0.0
  0
LINE
  5
FE
100
AcDbEntity
  8
ﾚｲﾔｰ1
370
    18
  6
Continuous
 62
     7
100
AcDbLine
 10
7895.967374
 20
386.501427
 30
0.0
 11
7895.967374
 21
385.701711
 31
0.0
  0
LINE
  5
FF
100
AcDbEntity
  8
ﾚｲﾔｰ1
370
    18
  6
Continuous
 62
     7
100
AcDbLine
 10
7895.967374
 20
392.001379
 30
0.0
 11
7895.967374
 21
391.201663
 31
0.0
  0
ARC
  5
100
100
AcDbEntity
  8
ﾚｲﾔｰ1
370
    18
  6
Continuous
 62
     7
100
AcDbCircle
 10
7893.017728
 20
386.501427
 30
0.0
 40
1.749565
100
AcDbArc
 50
0.0
 51
90.0
  0
LINE
  5
101
100
AcDbEntity
  8
ﾚｲﾔｰ1
370
    18
  6
Continuous
 62
     7
100
AcDbLine
 10
7898.51768
 20
389.451585
 30
0.0
 11
7898.51768
 21
388.251504
 31
0.0
  0
LINE
  5
102
100
AcDbEntity
  8
ﾚｲﾔｰ1
370
    18
  6
Continuous
 62
     7
100
AcDbLine
 10
7893.017728
 20
388.251504
 30
0.0
 11
7892.216987
 21
388.251504
 31
0.0
  0
LINE
  5
103
100
AcDbEntity
  8
ﾚｲﾔｰ1
370
    18
  6
Continuous
 62
     7
100
AcDbLine
 10
7939.752626
 20
565.269173
 30
0.0
 11
7942.842804
 21
574.779735
 31
0.0
  0
LINE
  5
104
100
AcDbEntity
  8
ﾚｲﾔｰ1
370
    18
  6
Continuous
 62
     7
100
AcDbLine
 10
7942.842804
 20
574.779735
 30
0.0
 11
7942.425664
 21
574.915273
 31
0.0
  0
LINE
  5
105
100
AcDbEntity
  8
ﾚｲﾔｰ1
370
    18
  6
Continuous
 62
     7
100
AcDbLine
 10
7939.752626
 20
565.269173
 30
0.0
 11
7939.335485
 21
565.40471
 31
0.0
  0
LINE
  5
106
100
AcDbEntity
  8
ﾚｲﾔｰ1
370
    18
  6
Continuous
 62
     7
100
AcDbLine
 10
7991.982493
 20
561.767936
 30
0.0
 11
7993.182574
 21
561.767936
 31
0.0
  0
LINE
  5
107
100
AcDbEntity
  8
ﾚｲﾔｰ1
370
    18
  6
Continuous
 62
     7
100
AcDbLine
 10
7993.182574
 20
555.468268
 30
0.0
 11
7991.982493
 21
555.468268
 31
0.0
  0
ARC
  5
108
100
AcDbEntity
  8
ﾚｲﾔｰ1
370
    18
  6
Continuous
 62
     7
100
AcDbCircle
 10
7897.716939
 20
386.501427
 30
0.0
 40
1.750077
100
AcDbArc
 50
90.0
 51
180.0
  0
ARC
  5
109
100
AcDbEntity
  8
ﾚｲﾔｰ1
370
    18
  6
Continuous
 62
     7
100
AcDbCircle
 10
7897.716939
 20
391.201663
 30
0.0
 40
1.749565
100
AcDbArc
 50
180.0
 51
-90.0
  0
LINE
  5
10A
100
AcDbEntity
  8
ﾚｲﾔｰ1
370
    18
  6
Continuous
 62
     7
100
AcDbLine
 10
7897.716939
 20
389.451585
 30
0.0
 11
7898.51768
 21
389.451585
 31
0.0
  0
ARC
  5
10B
100
AcDbEntity
  8
ﾚｲﾔｰ1
370
    18
  6
Continuous
 62
     7
100
AcDbCircle
 10
7990.232928
 20
560.96822
 30
0.0
 40
1.750077
100
AcDbArc
 50
-90.0
 51
0.0
  0
ARC
  5
10C
100
AcDbEntity
  8
ﾚｲﾔｰ1
370
    18
  6
Continuous
 62
     7
100
AcDbCircle
 10
7990.232928
 20
556.267984
 30
0.0
 40
1.749565
100
AcDbArc
 50
0.0
 51
90.0
  0
LINE
  5
10D
100
AcDbEntity
  8
ﾚｲﾔｰ1
370
    18
  6
Continuous
 62
     7
100
AcDbLine
 10
7961.785597
 20
633.079483
 30
0.0
 11
7944.480599
 21
579.820333
 31
0.0
  0
LINE
  5
10E
100
AcDbEntity
  8
ﾚｲﾔｰ1
370
    18
  6
Continuous
 62
     7
100
AcDbLine
 10
7993.837281
 20
583.208281
 30
0.0
 11
7993.047344
 21
585.261571
 31
0.0
  0
LINE
  5
10F
100
AcDbEntity
  8
ﾚｲﾔｰ1
370
    18
  6
Continuous
 62
     7
100
AcDbLine
 10
7995.73288
 20
558.018062
 30
0.0
 11
7994.932139
 21
558.018062
 31
0.0
  0
LINE
  5
110
100
AcDbEntity
  8
ﾚｲﾔｰ1
370
    18
  6
Continuous
 62
     7
100
AcDbLine
 10
7994.932139
 20
559.218143
 30
0.0
 11
7995.73288
 21
559.218143
 31
0.0
  0
LINE
  5
111
100
AcDbEntity
  8
ﾚｲﾔｰ1
370
    18
  6
Continuous
 62
     7
100
AcDbLine
 10
7894.767293
 20
391.201663
 30
0.0
 11
7894.767293
 21
392.001379
 31
0.0
  0
ELLIPSE
  5
112
100
AcDbEntity
  8
ﾚｲﾔｰ1
370
    18
  6
Continuous
 62
     7
100
AcDbEllipse
 10
7992.226023
 20
563.991419
 30
0.0
 11
3.0901783276538453
 21
9.5105624388543877
 31
0.0
210
0.0
220
0.0
230
-0.9999999999999999
 40
1.0
 41
0.0
 42
1.5707963267952603
  0
LINE
  5
113
100
AcDbEntity
  8
ﾚｲﾔｰ1
370
    18
  6
Continuous
 62
     7
100
AcDbLine
 10
8021.036717
 20
576.290357
 30
0.0
 11
8022.558407
 21
575.795928
 31
0.0
  0
LINE
  5
114
100
AcDbEntity
  8
レイヤー 1
370
    18
  6
Continuous
 62
     7
100
AcDbLine
 10
7998.646407
 20
551.390678
 30
0.0
 11
8001.736585
 21
560.901241
 31
0.0
  0
ELLIPSE
  5
115
100
AcDbEntity
  8
ﾚｲﾔｰ1
370
    18
  6
Continuous
 62
     7
100
AcDbEllipse
 10
8012.003795
 20
549.784389
 30
0.0
 11
-0.6180356655313517
 21
-1.9021124877708644
 31
0.0
210
0.0
220
0.0
230
1.0
 40
1.0
 41
0.0
 42
1.5707963267953018
  0
LINE
  5
116
100
AcDbEntity
  8
ﾚｲﾔｰ1
370
    18
  6
Continuous
 62
     7
100
AcDbLine
 10
8006.862386
 20
549.352014
 30
0.0
 11
8011.38576
 21
547.882277
 31
0.0
  0
LINE
  5
117
100
AcDbEntity
  8
ﾚｲﾔｰ1
370
    18
  6
Continuous
 62
     7
100
AcDbLine
 10
7956.325913
 20
544.112231
 30
0.0
 11
7958.513342
 21
543.40149
 31
0.0
  0
ARC
  5
118
100
AcDbEntity
  8
ﾚｲﾔｰ1
370
    18
  6
Continuous
 62
     7
100
AcDbCircle
 10
7893.017728
 20
391.201663
 30
0.0
 40
1.750077
100
AcDbArc
 50
-90.0
 51
0.0
  0
LINE
  5
119
100
AcDbEntity
  8
ﾚｲﾔｰ1
370
    18
  6
Continuous
 62
     7
100
AcDbLine
 10
7894.767293
 20
385.701711
 30
0.0
 11
7894.767293
 21
386.501427
 31
0.0
  0
LINE
  5
11A
100
AcDbEntity
  8
ﾚｲﾔｰ1
370
    18
  6
Continuous
 62
     7
100
AcDbLine
 10
7895.967374
 20
385.701711
 30
0.0
 11
7894.767293
 21
385.701711
 31
0.0
  0
LINE
  5
11B
100
AcDbEntity
  8
ﾚｲﾔｰ1
370
    18
  6
Continuous
 62
     7
100
AcDbLine
 10
7894.767293
 20
392.001379
 30
0.0
 11
7895.967374
 21
392.001379
 31
0.0
  0
ARC
  5
11C
100
AcDbEntity
  8
ﾚｲﾔｰ1
370
    18
  6
Continuous
 62
     7
100
AcDbCircle
 10
7994.932139
 20
556.267984
 30
0.0
 40
1.750077
100
AcDbArc
 50
90.0
 51
180.0
  0
LINE
  5
11D
100
AcDbEntity
  8
ﾚｲﾔｰ1
370
    18
  6
Continuous
 62
     7
100
AcDbLine
 10
7980.83662
 20
578.206697
 30
0.0
 11
7993.837281
 21
583.208281
 31
0.0
  0
LINE
  5
11E
100
AcDbEntity
  8
レイヤー 1
370
    18
  6
Continuous
 62
     7
100
AcDbLine
 10
7998.123383
 20
572.06738
 30
0.0
 11
7993.822557
 21
583.246552
 31
0.0
  0
LINE
  5
11F
100
AcDbEntity
  8
ﾚｲﾔｰ1
370
    18
  6
Continuous
 62
     7
100
AcDbLine
 10
7991.982493
 20
560.96822
 30
0.0
 11
7991.982493
 21
561.767936
 31
0.0
  0
LINE
  5
120
100
AcDbEntity
  8
ﾚｲﾔｰ1
370
    18
  6
Continuous
 62
     7
100
AcDbLine
 10
7993.182574
 20
561.767936
 30
0.0
 11
7993.182574
 21
560.96822
 31
0.0
  0
LINE
  5
121
100
AcDbEntity
  8
ﾚｲﾔｰ1
370
    18
  6
Continuous
 62
     7
100
AcDbLine
 10
8200.541677
 20
52.325366
 30
0.0
 11
8210.70314
 21
25.912589
 31
0.0
  0
ELLIPSE
  5
122
100
AcDbEntity
  8
ﾚｲﾔｰ1
370
    18
  6
Continuous
 62
     7
100
AcDbEllipse
 10
8218.997975
 20
-1.218311
 30
0.0
 11
1.8666272100277148
 21
0.7181245426694159
 31
0.0
210
0.0
220
0.0
230
1.0
 40
1.0
 41
-1.5707963267948966
 42
0.0
  0
LINE
  5
123
100
AcDbEntity
  8
ﾚｲﾔｰ1
370
    18
  6
Continuous
 62
     7
100
AcDbLine
 10
8220.864604
 20
-0.500189
 30
0.0
 11
8210.70314
 21
25.912589
 31
0.0
  0
LINE
  5
124
100
AcDbEntity
  8
ﾚｲﾔｰ1
370
    18
  6
Continuous
 62
     7
100
AcDbLine
 10
8198.861838
 20
50.286213
 30
0.0
 11
8201.008459
 21
51.112056
 31
0.0
  0
ELLIPSE
  5
125
100
AcDbEntity
  8
ﾚｲﾔｰ1
370
    18
  6
Continuous
 62
     7
100
AcDbEllipse
 10
8198.675051
 20
51.607239
 30
0.0
 11
1.8666272100277148
 21
0.7181245426694159
 31
0.0
210
0.0
220
0.0
230
-1.0
 40
1.0
 41
-1.5707963267948966
 42
0.0
  0
LINE
  5
126
100
AcDbEntity
  8
ﾚｲﾔｰ1
370
    18
  6
Continuous
 62
     7
100
AcDbLine
 10
8197.956926
 20
53.473866
 30
0.0
 11
8197.676932
 21
53.366148
 31
0.0
  0
MTEXT
  5
127
100
AcDbEntity
  8
ﾚｲﾔｰ1
370
    18
  6
Continuous
 62
     5
100
AcDbMText
 10
8313.163436
 20
24.815543
 30
0.0
 40
25.4
 41
254.649386
 71
     1
 72
     1
  1
φ25：コロ
  7
Style1
 73
     1
 44
1.0
  0
LINE
  5
128
100
AcDbEntity
  8
ﾚｲﾔｰ1
370
    18
  6
Continuous
 62
     7
100
AcDbLine
 10
8219.7161
 20
-3.084938
 30
0.0
 11
8219.436106
 21
-3.192657
 31
0.0
  0
MTEXT
  5
129
100
AcDbEntity
  8
ﾚｲﾔｰ1
370
     5
  6
Continuous
 62
     5
100
AcDbMText
 10
8206.878503
 20
289.088817
 30
0.0
 40
25.4
 41
264.0
 71
     1
 72
     1
  1
開き止めバー（ネジ固定式）
  7
Style1
 73
     1
 44
1.0
  0
LINE
  5
12A
100
AcDbEntity
  8
ﾚｲﾔｰ1
370
    18
  6
Continuous
 62
     7
100
AcDbLine
 10
8218.2512
 20
-0.112722
 30
0.0
 11
8220.397822
 21
0.713121
 31
0.0
  0
LINE
  5
12B
100
AcDbEntity
  8
ﾚｲﾔｰ1
370
     5
  6
Continuous
 62
     5
100
AcDbLine
 10
8389.029823
 20
263.688818
 30
0.0
 11
8204.761836
 21
263.688818
 31
0.0
  0
LINE
  5
12C
100
AcDbEntity
  8
ﾚｲﾔｰ1
370
     5
  6
Continuous
 62
     5
100
AcDbLine
 10
8438.371462
 20
-2.701123
 30
0.0
 11
8311.046769
 21
-2.701123
 31
0.0
  0
CIRCLE
  5
12D
100
AcDbEntity
  8
ﾚｲﾔｰ1
370
    18
  6
Continuous
 62
     7
100
AcDbCircle
 10
8057.867817
 20
388.758894
 30
0.0
 40
7.089713
  0
CIRCLE
  5
12E
100
AcDbEntity
  8
ﾚｲﾔｰ1
370
    18
  6
Continuous
 62
     7
100
AcDbCircle
 10
8057.867817
 20
388.758894
 30
0.0
 40
8.5
  0
CIRCLE
  5
12F
100
AcDbEntity
  8
ﾚｲﾔｰ1
370
    18
  6
Continuous
 62
     7
100
AcDbCircle
 10
7895.367846
 20
388.851545
 30
0.0
 40
6.999285
  0
LINE
  5
130
100
AcDbEntity
  8
ﾚｲﾔｰ1
370
    18
  6
Continuous
 62
     7
100
AcDbLine
 10
8006.122697
 20
551.274695
 30
0.0
 11
8012.260611
 21
549.28036
 31
0.0
  0
LINE
  5
131
100
AcDbEntity
  8
ﾚｲﾔｰ1
370
    18
  6
Continuous
 62
     7
100
AcDbLine
 10
8026.334792
 20
499.572734
 30
0.0
 11
8026.054798
 21
499.465015
 31
0.0
  0
LINE
  5
132
100
AcDbEntity
  8
ﾚｲﾔｰ1
370
    18
  6
Continuous
 62
     7
100
AcDbLine
 10
8013.905907
 20
549.166352
 30
0.0
 11
8022.558407
 21
575.795928
 31
0.0
  0
LINE
  5
133
100
AcDbEntity
  8
ﾚｲﾔｰ1
370
    18
  6
Continuous
 62
     7
100
AcDbLine
 10
8012.260611
 20
549.28036
 30
0.0
 11
8021.036717
 21
576.290357
 31
0.0
  0
CIRCLE
  5
134
100
AcDbEntity
  8
ﾚｲﾔｰ1
370
    18
  6
Continuous
 62
     7
100
AcDbCircle
 10
7992.583046
 20
558.618102
 30
0.0
 40
6.999285
  0
LINE
  5
135
100
AcDbEntity
  8
ﾚｲﾔｰ1
370
    18
  6
Continuous
 62
     7
100
AcDbLine
 10
7985.324994
 20
614.916421
 30
0.0
 11
7979.762673
 21
597.797409
 31
0.0
  0
LINE
  5
136
100
AcDbEntity
  8
ﾚｲﾔｰ1
370
    18
  6
Continuous
 62
     7
100
AcDbLine
 10
7956.223277
 20
615.960473
 30
0.0
 11
7947.478072
 21
589.045579
 31
0.0
  0
LINE
  5
137
100
AcDbEntity
  8
ﾚｲﾔｰ1
370
    18
  6
Continuous
 62
     7
100
AcDbLine
 10
7985.324994
 20
614.916421
 30
0.0
 11
7979.762673
 21
597.797409
 31
0.0
  0
LINE
  5
138
100
AcDbEntity
  8
ﾚｲﾔｰ1
370
    18
  6
Continuous
 62
     7
100
AcDbLine
 10
8057.869874
 20
398.755008
 30
0.0
 11
7895.369902
 21
398.851543
 31
0.0
  0
LINE
  5
139
100
AcDbEntity
  8
ﾚｲﾔｰ1
370
    18
  6
Continuous
 62
     7
100
AcDbLine
 10
7898.51768
 20
388.251504
 30
0.0
 11
7897.716939
 21
388.251504
 31
0.0
  0
ELLIPSE
  5
13A
100
AcDbEntity
  8
ﾚｲﾔｰ1
370
    18
  6
Continuous
 62
     7
100
AcDbEllipse
 10
8248.911278
 20
-64.371967
 30
0.0
 11
-4.7635028867052398
 21
1.519552647443694
 31
0.0
210
0.0
220
0.0
230
1.0
 40
1.0
 41
-1.5707963267948966
 42
-0.894738698186078
  0
LINE
  5
13B
100
AcDbEntity
  8
ﾚｲﾔｰ1
370
    18
  6
Continuous
 62
     7
100
AcDbLine
 10
8256.194844
 20
-61.447179
 30
0.0
 11
8250.430831
 21
-59.608464
 31
0.0
  0
LINE
  5
13C
100
AcDbEntity
  8
ﾚｲﾔｰ1
370
    18
  6
Continuous
 62
     7
100
AcDbLine
 10
8230.860431
 20
-32.888003
 30
0.0
 11
8233.007053
 21
-32.062159
 31
0.0
  0
ARC
  5
13D
100
AcDbEntity
  8
ﾚｲﾔｰ1
370
    18
  6
Continuous
 62
     7
100
AcDbCircle
 10
8256.747633
 20
-56.017668
 30
0.0
 40
1.125522
100
AcDbArc
 50
0.0
 51
90.0
  0
ARC
  5
13E
100
AcDbEntity
  8
ﾚｲﾔｰ1
370
    18
  6
Continuous
 62
     7
100
AcDbCircle
 10
8256.747633
 20
-52.567558
 30
0.0
 40
1.125522
100
AcDbArc
 50
-90.0
 51
0.0
  0
ARC
  5
13F
100
AcDbEntity
  8
ﾚｲﾔｰ1
370
    18
  6
Continuous
 62
     7
100
AcDbCircle
 10
8260.197733
 20
-52.567558
 30
0.0
 40
1.124497
100
AcDbArc
 50
180.0
 51
-90.0
  0
LINE
  5
140
100
AcDbEntity
  8
ﾚｲﾔｰ1
370
    18
  6
Continuous
 62
     7
100
AcDbLine
 10
8260.922889
 20
-54.893161
 30
0.0
 11
8260.197733
 21
-54.893161
 31
0.0
  0
LINE
  5
141
100
AcDbEntity
  8
ﾚｲﾔｰ1
370
    18
  6
Continuous
 62
     7
100
AcDbLine
 10
8259.073236
 20
-51.842401
 30
0.0
 11
8259.073236
 21
-52.567558
 31
0.0
  0
LINE
  5
142
100
AcDbEntity
  8
ﾚｲﾔｰ1
370
    18
  6
Continuous
 62
     7
100
AcDbLine
 10
8259.073236
 20
-56.017668
 30
0.0
 11
8259.073236
 21
-56.742825
 31
0.0
  0
LINE
  5
143
100
AcDbEntity
  8
ﾚｲﾔｰ1
370
    18
  6
Continuous
 62
     7
100
AcDbLine
 10
8257.873154
 20
-56.742825
 30
0.0
 11
8257.873154
 21
-56.017668
 31
0.0
  0
LINE
  5
144
100
AcDbEntity
  8
ﾚｲﾔｰ1
370
    18
  6
Continuous
 62
     7
100
AcDbLine
 10
8259.073236
 20
-56.742825
 30
0.0
 11
8257.873154
 21
-56.742825
 31
0.0
  0
ELLIPSE
  5
145
100
AcDbEntity
  8
ﾚｲﾔｰ1
370
    18
  6
Continuous
 62
     7
100
AcDbEllipse
 10
8258.474173
 20
-54.301925
 30
0.0
 11
-2.2793320490231381
 21
-7.1452533482260829
 31
0.0
210
0.0
220
0.0
230
1.0
 40
1.0
 41
0.0
 42
2.8311711408214943
  0
ELLIPSE
  5
146
100
AcDbEntity
  8
ﾚｲﾔｰ1
370
    18
  6
Continuous
 62
     7
100
AcDbEllipse
 10
8258.474173
 20
-54.301925
 30
0.0
 11
-0.0093168509465076
 21
12.499996527853327
 31
0.0
210
0.0
220
0.0
230
1.0
 40
1.0
 41
2.0146266240744688
 42
6.5905192630358265
  0
CIRCLE
  5
147
100
AcDbEntity
  8
ﾚｲﾔｰ1
370
    18
  6
Continuous
 62
     7
100
AcDbCircle
 10
8258.472683
 20
-54.292608
 30
0.0
 40
4.500048
  0
LINE
  5
148
100
AcDbEntity
  8
ﾚｲﾔｰ1
370
    18
  6
Continuous
 62
     7
100
AcDbLine
 10
8262.827149
 20
-48.194421
 30
0.0
 11
8239.862372
 21
-31.826828
 31
0.0
  0
LINE
  5
149
100
AcDbEntity
  8
ﾚｲﾔｰ1
370
    40
  6
Continuous
 62
     7
100
AcDbLine
 10
8602.684999
 20
-396.825844
 30
0.0
 11
8602.684999
 21
-370.265198
 31
0.0
  0
MTEXT
  5
14A
100
AcDbEntity
  8
ﾚｲﾔｰ1
370
    40
  6
Continuous
 62
     7
100
AcDbMText
 10
8542.741267
 20
-370.84552
 30
0.0
 40
25.400001
 41
60.524055
 71
     1
 72
     1
  1
尺度
  7
Style1
 73
     1
 44
1.0
  0
LINE
  5
14B
100
AcDbEntity
  8
ﾚｲﾔｰ1
370
    40
  6
Continuous
 62
     7
100
AcDbLine
 10
8531.557558
 20
-396.825844
 30
0.0
 11
8531.557558
 21
-370.265198
 31
0.0
  0
LINE
  5
14C
100
AcDbEntity
  8
ﾚｲﾔｰ1
370
    40
  6
Continuous
 62
     7
100
AcDbLine
 10
8675.619435
 20
-396.825844
 30
0.0
 11
8675.619435
 21
-220.511031
 31
0.0
  0
MTEXT
  5
14D
100
AcDbEntity
  8
ﾚｲﾔｰ1
370
    40
  6
Continuous
 62
     7
100
AcDbMText
 10
8225.036275
 20
-335.06988
 30
0.0
 40
25.4
 41
294.595147
 71
     1
 72
     1
  1
特注イーゼルスタンド
  7
Style1
 73
     1
 44
1.0
  0
MTEXT
  5
14E
100
AcDbEntity
  8
ﾚｲﾔｰ1
370
    40
  6
Continuous
 62
     7
100
AcDbMText
 10
8226.364675
 20
-300.773292
 30
0.0
 40
25.400001
 41
224.736291
 71
     1
 72
     1
  1
VESA100～400対応
  7
Style1
 73
     1
 44
1.0
  0
MTEXT
  5
14F
100
AcDbEntity
  8
ﾚｲﾔｰ1
370
    40
  6
Continuous
 62
     7
100
AcDbMText
 10
8278.14486
 20
-372.381865
 30
0.0
 40
25.4
 41
239.0
 71
     1
 72
     1
  1
SS-IC55EA
  7
Style1
 11
1.0
 21
0.0
 31
0.0
 73
     1
 44
1.0
  0
MTEXT
  5
150
100
AcDbEntity
  8
ﾚｲﾔｰ1
370
    40
  6
Continuous
 62
     7
100
AcDbMText
 10
8609.855486
 20
-370.84552
 30
0.0
 40
25.400001
 41
66.344271
 71
     1
 72
     1
  1
1／ 8
  7
Style1
 73
     1
 44
1.0
  0
LINE
  5
151
100
AcDbEntity
  8
ﾚｲﾔｰ1
370
    40
  6
Continuous
 62
     7
100
AcDbLine
 10
8212.395644
 20
-396.825844
 30
0.0
 11
8212.395644
 21
-300.192969
 31
0.0
  0
INSERT
  5
159
100
AcDbEntity
  8
ﾚｲﾔｰ1
370
    18
  6
Continuous
 62
     7
100
AcDbBlockReference
  2
C3
 10
0.0
 20
0.0
 30
0.0
  0
LINE
  5
15A
100
AcDbEntity
  8
ﾚｲﾔｰ1
370
    18
  6
Continuous
 62
     7
100
AcDbLine
 10
8241.590248
 20
-60.778106
 30
0.0
 11
8222.923976
 21
-67.959352
 31
0.0
  0
ELLIPSE
  5
15B
100
AcDbEntity
  8
ﾚｲﾔｰ1
370
    18
  6
Continuous
 62
     7
100
AcDbEllipse
 10
8224.575414
 20
-69.466917
 30
0.0
 11
-0.9333136050133715
 21
-0.3590622713359706
 31
0.0
210
0.0
220
0.0
230
-1.0
 40
1.0
 41
-1.5707963267948966
 42
0.0
  0
LINE
  5
15C
100
AcDbEntity
  8
ﾚｲﾔｰ1
370
    18
  6
Continuous
 62
     7
100
AcDbLine
 10
8222.923976
 20
-67.959352
 30
0.0
 11
8223.642101
 21
-69.825979
 31
0.0
  0
LINE
  5
15D
100
AcDbEntity
  8
ﾚｲﾔｰ1
370
     5
  6
Continuous
 62
     5
100
AcDbLine
 10
8242.308373
 20
-87.817187
 30
0.0
 11
8242.308373
 21
-130.307684
 31
0.0
  0
LINE
  5
15E
100
AcDbEntity
  8
ﾚｲﾔｰ1
370
     5
  6
Continuous
 62
     5
100
AcDbLine
 10
8226.308373
 20
-120.307684
 30
0.0
 11
8242.308373
 21
-114.307684
 31
0.0
  0
LINE
  5
15F
100
AcDbEntity
  8
ﾚｲﾔｰ1
370
    18
  6
Continuous
 62
     7
100
AcDbLine
 10
8256.02349
 20
-53.69308
 30
0.0
 11
8256.747633
 21
-53.69308
 31
0.0
  0
LINE
  5
160
100
AcDbEntity
  8
ﾚｲﾔｰ1
370
    18
  6
Continuous
 62
     7
100
AcDbLine
 10
8256.747633
 20
-54.893161
 30
0.0
 11
8256.02349
 21
-54.893161
 31
0.0
  0
LINE
  5
161
100
AcDbEntity
  8
ﾚｲﾔｰ1
370
    18
  6
Continuous
 62
     7
100
AcDbLine
 10
8256.02349
 20
-54.893161
 30
0.0
 11
8256.02349
 21
-53.69308
 31
0.0
  0
LINE
  5
162
100
AcDbEntity
  8
ﾚｲﾔｰ1
370
    18
  6
Continuous
 62
     7
100
AcDbLine
 10
8242.308373
 20
-62.644734
 30
0.0
 11
8242.667435
 21
-63.578047
 31
0.0
  0
LINE
  5
163
100
AcDbEntity
  8
ﾚｲﾔｰ1
370
    18
  6
Continuous
 62
     7
100
AcDbLine
 10
8242.667435
 20
-63.578047
 30
0.0
 11
8231.467672
 21
-67.886794
 31
0.0
  0
LINE
  5
164
100
AcDbEntity
  8
レイヤー 1
370
    18
  6
Continuous
 62
     7
100
AcDbLine
 10
8244.921775
 20
-63.032198
 30
0.0
 11
8244.089793
 21
-60.869622
 31
0.0
  0
LINE
  5
165
100
AcDbEntity
  8
ﾚｲﾔｰ1
370
     5
  6
Continuous
 62
     5
100
AcDbLine
 10
8270.97417
 20
-154.569052
 30
0.0
 11
8254.97417
 21
-148.569052
 31
0.0
  0
LINE
  5
166
100
AcDbEntity
  8
ﾚｲﾔｰ1
370
     5
  6
Continuous
 62
     5
100
AcDbLine
 10
8254.97417
 20
-160.569052
 30
0.0
 11
8270.97417
 21
-154.569052
 31
0.0
  0
LINE
  5
167
100
AcDbEntity
  8
ﾚｲﾔｰ1
370
    18
  6
Continuous
 62
     7
100
AcDbLine
 10
8257.873154
 20
-52.567558
 30
0.0
 11
8257.873154
 21
-51.842401
 31
0.0
  0
LINE
  5
168
100
AcDbEntity
  8
ﾚｲﾔｰ1
370
    18
  6
Continuous
 62
     7
100
AcDbLine
 10
8257.873154
 20
-51.842401
 30
0.0
 11
8259.073236
 21
-51.842401
 31
0.0
  0
ARC
  5
169
100
AcDbEntity
  8
ﾚｲﾔｰ1
370
    18
  6
Continuous
 62
     7
100
AcDbCircle
 10
8260.197733
 20
-56.017668
 30
0.0
 40
1.124507
100
AcDbArc
 50
90.0
 51
180.0
  0
LINE
  5
16A
100
AcDbEntity
  8
ﾚｲﾔｰ1
370
     5
  6
Continuous
 62
     5
100
AcDbLine
 10
8270.97417
 20
-68.955673
 30
0.0
 11
8270.97417
 21
-170.569052
 31
0.0
  0
LINE
  5
16B
100
AcDbEntity
  8
ﾚｲﾔｰ1
370
    18
  6
Continuous
 62
     7
100
AcDbLine
 10
8260.922889
 20
-53.69308
 30
0.0
 11
8260.922889
 21
-54.893161
 31
0.0
  0
LINE
  5
16C
100
AcDbEntity
  8
ﾚｲﾔｰ1
370
    18
  6
Continuous
 62
     7
100
AcDbLine
 10
8260.197733
 20
-53.69308
 30
0.0
 11
8260.922889
 21
-53.69308
 31
0.0
  0
LINE
  5
16D
100
AcDbEntity
  8
ﾚｲﾔｰ1
370
    18
  6
Continuous
 62
     7
100
AcDbLine
 10
8241.734121
 20
-63.937109
 30
0.0
 11
8224.934476
 21
-70.40023
 31
0.0
  0
LINE
  5
16E
100
AcDbEntity
  8
ﾚｲﾔｰ1
370
    18
  6
Continuous
 62
     7
100
AcDbLine
 10
8241.590248
 20
-60.778106
 30
0.0
 11
8242.308373
 21
-62.644734
 31
0.0
  0
LINE
  5
16F
100
AcDbEntity
  8
ﾚｲﾔｰ1
370
     5
  6
Continuous
 62
     5
100
AcDbLine
 10
8242.308373
 20
-114.307684
 30
0.0
 11
8226.308373
 21
-108.307684
 31
0.0
  0
ELLIPSE
  5
170
100
AcDbEntity
  8
ﾚｲﾔｰ1
370
    18
  6
Continuous
 62
     7
100
AcDbEllipse
 10
8241.375059
 20
-63.003796
 30
0.0
 11
0.9333136050133715
 21
0.3590622713359706
 31
0.0
210
0.0
220
0.0
230
1.0
 40
1.0
 41
-1.5707963267948966
 42
0.0
  0
ELLIPSE
  5
171
100
AcDbEntity
  8
ﾚｲﾔｰ1
370
    18
  6
Continuous
 62
     7
100
AcDbEllipse
 10
8236.960388
 20
-35.898497
 30
0.0
 11
-4.0716689398198955
 21
2.9019841564881275
 31
0.0
210
0.0
220
0.0
230
1.0
 40
1.0
 41
-1.5707963267948966
 42
-0.584317444298409
  0
LINE
  5
172
100
AcDbEntity
  8
ﾚｲﾔｰ1
370
    18
  6
Continuous
 62
     7
100
AcDbLine
 10
8247.115967
 20
-59.705399
 30
0.0
 11
8241.943172
 21
-61.695465
 31
0.0
  0
LINE
  5
173
100
AcDbEntity
  8
ﾚｲﾔｰ1
370
    18
  6
Continuous
 62
     7
100
AcDbLine
 10
7756.769369
 20
-4.365814
 30
0.0
 11
7757.054686
 21
-4.458519
 31
0.0
  0
ELLIPSE
  5
174
100
AcDbEntity
  8
ﾚｲﾔｰ1
370
    18
  6
Continuous
 62
     7
100
AcDbEllipse
 10
7757.387405
 20
-2.463701
 30
0.0
 11
-1.902112487770987
 21
0.6180356655288395
 31
0.0
210
0.0
220
0.0
230
-1.0
 40
1.0
 41
-1.5707963267948966
 42
0.0
  0
LINE
  5
175
100
AcDbEntity
  8
ﾚｲﾔｰ1
370
    18
  6
Continuous
 62
     7
100
AcDbLine
 10
7758.074445
 20
-1.320034
 30
0.0
 11
7755.887016
 21
-0.609293
 31
0.0
  0
LINE
  5
176
100
AcDbEntity
  8
ﾚｲﾔｰ1
370
    18
  6
Continuous
 62
     7
100
AcDbLine
 10
7772.975703
 20
51.98412
 30
0.0
 11
7764.230497
 21
25.069226
 31
0.0
  0
LINE
  5
177
100
AcDbEntity
  8
ﾚｲﾔｰ1
370
    18
  6
Continuous
 62
     7
100
AcDbLine
 10
7774.761408
 20
50.037004
 30
0.0
 11
7772.573979
 21
50.747745
 31
0.0
  0
LINE
  5
178
100
AcDbEntity
  8
ﾚｲﾔｰ1
370
    18
  6
Continuous
 62
     7
100
AcDbLine
 10
7755.485292
 20
-1.845668
 30
0.0
 11
7764.230497
 21
25.069226
 31
0.0
  0
LINE
  5
179
100
AcDbEntity
  8
ﾚｲﾔｰ1
370
    18
  6
Continuous
 62
     7
100
AcDbLine
 10
7759.59523
 20
10.803382
 30
0.0
 11
7759.178089
 21
10.93892
 31
0.0
  0
LINE
  5
17A
100
AcDbEntity
  8
ﾚｲﾔｰ1
370
     5
  6
Continuous
 62
     5
100
AcDbLine
 10
7840.385612
 20
304.408972
 30
0.0
 11
7854.099841
 21
294.21486
 31
0.0
  0
MTEXT
  5
17B
100
AcDbEntity
  8
ﾚｲﾔｰ1
370
    18
  6
Continuous
 62
     5
100
AcDbMText
 10
7779.470443
 20
339.82161
 30
0.0
 40
25.4
 41
76.497653
 71
     1
 72
     1
  1
18ﾟ
  7
Style1
 11
0.983912
 21
-0.178654
 31
0.0
 73
     1
 44
1.0
  0
ELLIPSE
  5
17C
100
AcDbEntity
  8
ﾚｲﾔｰ1
370
    18
  6
Continuous
 62
     7
100
AcDbEllipse
 10
7774.877814
 20
51.366082
 30
0.0
 11
-1.902112487770987
 21
0.6180356655288395
 31
0.0
210
0.0
220
0.0
230
1.0
 40
1.0
 41
-1.5707963267948966
 42
0.0
  0
LINE
  5
17D
100
AcDbEntity
  8
ﾚｲﾔｰ1
370
    18
  6
Continuous
 62
     7
100
AcDbLine
 10
7775.49585
 20
53.268195
 30
0.0
 11
7775.781167
 21
53.175489
 31
0.0
  0
LINE
  5
17E
100
AcDbEntity
  8
ﾚｲﾔｰ1
370
    18
  6
Continuous
 62
     7
100
AcDbLine
 10
7756.505051
 20
1.29282
 30
0.0
 11
7756.087911
 21
1.428357
 31
0.0
  0
ARC
  5
17F
100
AcDbEntity
  8
ﾚｲﾔｰ1
370
    18
  6
Continuous
 62
     7
100
AcDbCircle
 10
7765.318957
 20
3.686312
 30
0.0
 40
9.503188
100
AcDbArc
 50
130.254982
 51
-166.255083
  0
LINE
  5
180
100
AcDbEntity
  8
ﾚｲﾔｰ1
370
    18
  6
Continuous
 62
     7
100
AcDbLine
 10
7768.865765
 20
39.33507
 30
0.0
 11
7771.955943
 21
48.845632
 31
0.0
  0
LINE
  5
181
100
AcDbEntity
  8
ﾚｲﾔｰ1
370
     5
  6
Continuous
 62
     5
100
AcDbLine
 10
7854.099841
 20
294.21486
 30
0.0
 11
7837.064225
 21
292.87778
 31
0.0
  0
LINE
  5
182
100
AcDbEntity
  8
ﾚｲﾔｰ1
370
    18
  6
Continuous
 62
     7
100
AcDbLine
 10
7771.955943
 20
48.845632
 30
0.0
 11
7771.538802
 21
48.98117
 31
0.0
  0
ARC
  5
183
100
AcDbEntity
  8
ﾚｲﾔｰ1
370
     5
  6
Continuous
 62
     5
100
AcDbCircle
 10
7737.877547
 20
-63.479507
 30
0.0
 40
376.102223
210
0.0
220
0.0
230
1.0
100
AcDbArc
 50
87.505052
 51
90.0
  0
ARC
  5
184
100
AcDbEntity
  8
ﾚｲﾔｰ1
370
     5
  6
Continuous
 62
     5
100
AcDbCircle
 10
7737.877547
 20
-63.479507
 30
0.0
 40
376.102223
210
0.0
220
0.0
230
1.0
100
AcDbArc
 50
71.912244
 51
87.505052
  0
LINE
  5
185
100
AcDbEntity
  8
ﾚｲﾔｰ1
370
     5
  6
Continuous
 62
     5
100
AcDbLine
 10
7737.877547
 20
312.622715
 30
0.0
 11
7753.666195
 21
306.086768
 31
0.0
  0
LINE
  5
186
100
AcDbEntity
  8
ﾚｲﾔｰ1
370
     5
  6
Continuous
 62
     5
100
AcDbLine
 10
7754.070713
 20
318.079948
 30
0.0
 11
7737.877547
 21
312.622715
 31
0.0
  0
LINE
  5
187
100
AcDbEntity
  8
ﾚｲﾔｰ1
370
    18
  6
Continuous
 62
     7
100
AcDbLine
 10
8233.007053
 20
-32.062159
 30
0.0
 11
8235.165077
 21
-31.231929
 31
0.0
  0
ELLIPSE
  5
188
100
AcDbEntity
  8
ﾚｲﾔｰ1
370
    18
  6
Continuous
 62
     7
100
AcDbEllipse
 10
8243.055148
 20
-63.750323
 30
0.0
 11
0.7181245426723051
 21
-1.8666272100276784
 31
0.0
210
0.0
220
0.0
230
-1.0
 40
1.0
 41
-1.5707963267948966
 42
0.0000000000004408
  0
LINE
  5
189
100
AcDbEntity
  8
ﾚｲﾔｰ1
370
    18
  6
Continuous
 62
     7
100
AcDbLine
 10
8243.773272
 20
-65.61695
 30
0.0
 11
8232.293515
 21
-70.033416
 31
0.0
  0
LINE
  5
18A
100
AcDbEntity
  8
レイヤー 1
370
    18
  6
Continuous
 62
     7
100
AcDbLine
 10
8232.293515
 20
-70.033416
 30
0.0
 11
8231.467672
 21
-67.886794
 31
0.0
  0
LINE
  5
18B
100
AcDbEntity
  8
レイヤー 1
370
    18
  6
Continuous
 62
     7
100
AcDbLine
 10
8241.590248
 20
-60.778106
 30
0.0
 11
8222.923976
 21
-67.959352
 31
0.0
  0
ELLIPSE
  5
18C
100
AcDbEntity
  8
ﾚｲﾔｰ1
370
    18
  6
Continuous
 62
     7
100
AcDbEllipse
 10
7755.996551
 20
-69.20024
 30
0.0
 11
0.9510562438854847
 21
-0.3090178327644427
 31
0.0
210
0.0
220
0.0
230
1.0
 40
1.0
 41
-1.5707963267948966
 42
0.0
  0
LINE
  5
18D
100
AcDbEntity
  8
ﾚｲﾔｰ1
370
    18
  6
Continuous
 62
     7
100
AcDbLine
 10
7738.568521
 20
-64.588975
 30
0.0
 11
7755.687533
 21
-70.151296
 31
0.0
  0
ELLIPSE
  5
18E
100
AcDbEntity
  8
ﾚｲﾔｰ1
370
    18
  6
Continuous
 62
     7
100
AcDbEllipse
 10
7738.877538
 20
-63.637919
 30
0.0
 11
-0.9510562438854847
 21
0.3090178327644427
 31
0.0
210
0.0
220
0.0
230
-1.0
 40
1.0
 41
-1.5707963267948966
 42
0.0
  0
LINE
  5
18F
100
AcDbEntity
  8
ﾚｲﾔｰ1
370
    18
  6
Continuous
 62
     7
100
AcDbLine
 10
7738.606321
 20
-61.236577
 30
0.0
 11
7737.926482
 21
-63.328901
 31
0.0
  0
LINE
  5
190
100
AcDbEntity
  8
レイヤー 1
370
    18
  6
Continuous
 62
     7
100
AcDbLine
 10
7738.606321
 20
-61.236577
 30
0.0
 11
7757.627446
 21
-67.416934
 31
0.0
  0
LINE
  5
191
100
AcDbEntity
  8
ﾚｲﾔｰ1
370
    18
  6
Continuous
 62
     7
100
AcDbLine
 10
7738.606321
 20
-61.236577
 30
0.0
 11
7757.627446
 21
-67.416934
 31
0.0
  0
LINE
  5
192
100
AcDbEntity
  8
ﾚｲﾔｰ1
370
     5
  6
Continuous
 62
     5
100
AcDbLine
 10
7753.877547
 20
-108.307684
 30
0.0
 11
7737.877547
 21
-114.307684
 31
0.0
  0
LINE
  5
193
100
AcDbEntity
  8
ﾚｲﾔｰ1
370
     5
  6
Continuous
 62
     5
100
AcDbLine
 10
7737.877547
 20
-114.307684
 30
0.0
 11
7753.877547
 21
-120.307684
 31
0.0
  0
LINE
  5
194
100
AcDbEntity
  8
ﾚｲﾔｰ1
370
     5
  6
Continuous
 62
     5
100
AcDbLine
 10
7737.877547
 20
-114.307684
 30
0.0
 11
7990.09296
 21
-114.307684
 31
0.0
  0
LINE
  5
195
100
AcDbEntity
  8
ﾚｲﾔｰ1
370
     5
  6
Continuous
 62
     5
100
AcDbLine
 10
7737.877547
 20
-154.569052
 30
0.0
 11
7753.877547
 21
-160.569052
 31
0.0
  0
LINE
  5
196
100
AcDbEntity
  8
ﾚｲﾔｰ1
370
     5
  6
Continuous
 62
     5
100
AcDbLine
 10
7753.877547
 20
-148.569052
 30
0.0
 11
7737.877547
 21
-154.569052
 31
0.0
  0
LINE
  5
197
100
AcDbEntity
  8
ﾚｲﾔｰ1
370
     5
  6
Continuous
 62
     5
100
AcDbLine
 10
7737.877547
 20
-154.569052
 30
0.0
 11
7989.039254
 21
-154.569052
 31
0.0
  0
LINE
  5
198
100
AcDbEntity
  8
ﾚｲﾔｰ1
370
     5
  6
Continuous
 62
     5
100
AcDbLine
 10
7666.810134
 20
-70.151296
 30
0.0
 11
7672.810134
 21
-54.151296
 31
0.0
  0
LINE
  5
199
100
AcDbEntity
  8
ﾚｲﾔｰ1
370
     5
  6
Continuous
 62
     5
100
AcDbLine
 10
7660.810134
 20
-54.151296
 30
0.0
 11
7666.810134
 21
-70.151296
 31
0.0
  0
LINE
  5
19A
100
AcDbEntity
  8
ﾚｲﾔｰ1
370
     5
  6
Continuous
 62
     5
100
AcDbLine
 10
7715.193951
 20
-70.151296
 30
0.0
 11
7650.810134
 21
-70.151296
 31
0.0
  0
MTEXT
  5
19B
100
AcDbEntity
  8
ﾚｲﾔｰ1
370
    40
  6
Continuous
 62
     5
100
AcDbMText
 10
7959.588245
 20
-84.907685
 30
0.0
 40
25.4
 41
110.321993
 71
     1
 72
     1
  1
(505)
  7
Style1
 11
1.0
 21
0.0
 31
0.0
 73
     1
 44
1.0
  0
MTEXT
  5
19C
100
AcDbEntity
  8
ﾚｲﾔｰ1
370
    40
  6
Continuous
 62
     5
100
AcDbMText
 10
7959.588245
 20
-126.663717
 30
0.0
 40
25.4
 41
110.321993
 71
     1
 72
     1
  1
(533)
  7
Style1
 11
1.0
 21
0.0
 31
0.0
 73
     1
 44
1.0
  0
MTEXT
  5
19D
100
AcDbEntity
  8
ﾚｲﾔｰ1
370
    40
  6
Continuous
 62
     7
100
AcDbMText
 10
8011.204038
 20
-221.091354
 30
0.0
 40
25.400001
 41
83.849542
 71
     1
 72
     1
  1
材　質
  7
Style1
 73
     1
 44
1.0
  0
MTEXT
  5
19E
100
AcDbEntity
  8
ﾚｲﾔｰ1
370
    40
  6
Continuous
 62
     7
100
AcDbMText
 10
8011.204038
 20
-247.652
 30
0.0
 40
25.400001
 41
88.313784
 71
     1
 72
     1
  1
質　量
  7
Style1
 73
     1
 44
1.0
  0
LINE
  5
19F
100
AcDbEntity
  8
ﾚｲﾔｰ1
370
    40
  6
Continuous
 62
     7
100
AcDbLine
 10
8007.034135
 20
-396.825844
 30
0.0
 11
8007.034135
 21
-220.511031
 31
0.0
  0
MTEXT
  5
1A0
100
AcDbEntity
  8
ﾚｲﾔｰ1
370
    40
  6
Continuous
 62
     7
100
AcDbMText
 10
8011.204038
 20
-274.212646
 30
0.0
 40
25.400001
 41
88.313784
 71
     1
 72
     1
  1
塗　装
  7
Style1
 73
     1
 44
1.0
  0
LINE
  5
1A1
100
AcDbEntity
  8
ﾚｲﾔｰ1
370
    40
  6
Continuous
 62
     7
100
AcDbLine
 10
8098.9375
 20
-300.192969
 30
0.0
 11
8098.9375
 21
-220.511031
 31
0.0
  0
LINE
  5
1A2
100
AcDbEntity
  8
ﾚｲﾔｰ1
370
    18
  6
Continuous
 62
     7
100
AcDbLine
 10
7768.865765
 20
39.33507
 30
0.0
 11
7768.448624
 21
39.470607
 31
0.0
  0
ARC
  5
1A3
100
AcDbEntity
  8
ﾚｲﾔｰ1
370
    18
  6
Continuous
 62
     7
100
AcDbCircle
 10
7777.679671
 20
41.728562
 30
0.0
 40
9.503188
100
AcDbArc
 50
130.254982
 51
-166.255083
  0
LINE
  5
1A4
100
AcDbEntity
  8
ﾚｲﾔｰ1
370
    18
  6
Continuous
 62
     7
100
AcDbLine
 10
7756.505051
 20
1.29282
 30
0.0
 11
7759.59523
 21
10.803382
 31
0.0
  0
CIRCLE
  5
1A5
100
AcDbEntity
  8
ﾚｲﾔｰ1
370
    18
  6
Continuous
 62
     7
100
AcDbCircle
 10
7353.444557
 20
784.801365
 30
0.0
 40
5.0
210
0.0
220
0.0
230
1.0
  0
LINE
  5
1A6
100
AcDbEntity
  8
ﾚｲﾔｰ1
370
    18
  6
Continuous
 62
     7
100
AcDbLine
 10
7337.944557
 20
774.501365
 30
0.0
 11
7337.944557
 21
777.801365
 31
0.0
  0
LINE
  5
1A7
100
AcDbEntity
  8
ﾚｲﾔｰ1
370
    18
  6
Continuous
 62
     7
100
AcDbLine
 10
7337.944557
 20
777.801365
 30
0.0
 11
7364.444557
 21
777.801365
 31
0.0
  0
ARC
  5
1A8
100
AcDbEntity
  8
ﾚｲﾔｰ1
370
    18
  6
Continuous
 62
     7
100
AcDbCircle
 10
7364.444557
 20
781.801365
 30
0.0
 40
4.0
100
AcDbArc
 50
-90.0
 51
0.0
  0
CIRCLE
  5
1A9
100
AcDbEntity
  8
ﾚｲﾔｰ1
370
    18
  6
Continuous
 62
     7
100
AcDbCircle
 10
7218.444557
 20
880.101365
 30
0.0
 40
4.25
210
0.0
220
0.0
230
1.0
  0
CIRCLE
  5
1AA
100
AcDbEntity
  8
ﾚｲﾔｰ1
370
    18
  6
Continuous
 62
     7
100
AcDbCircle
 10
7218.444557
 20
900.101365
 30
0.0
 40
4.25
210
0.0
220
0.0
230
1.0
  0
CIRCLE
  5
1AB
100
AcDbEntity
  8
ﾚｲﾔｰ1
370
    18
  6
Continuous
 62
     7
100
AcDbCircle
 10
7353.444557
 20
824.801365
 30
0.0
 40
5.0
210
0.0
220
0.0
230
1.0
  0
LINE
  5
1AC
100
AcDbEntity
  8
ﾚｲﾔｰ1
370
    18
  6
Continuous
 62
     7
100
AcDbLine
 10
7208.444557
 20
1010.101365
 30
0.0
 11
7234.444557
 21
1010.101365
 31
0.0
  0
ELLIPSE
  5
1AD
100
AcDbEntity
  8
ﾚｲﾔｰ1
370
    18
  6
Continuous
 62
     7
100
AcDbEllipse
 10
7218.480105
 20
1000.101365
 30
0.0
 11
-0.000000000007276
 21
-4.2500000000059117
 31
0.0
210
0.0
220
0.0
230
-1.0
 40
1.0
 41
0.0
 42
6.2831853071795862
  0
ARC
  5
1AE
100
AcDbEntity
  8
ﾚｲﾔｰ1
370
    18
  6
Continuous
 62
     7
100
AcDbCircle
 10
7028.444557
 20
1006.101365
 30
0.0
 40
4.0
100
AcDbArc
 50
0.0
 51
90.0
  0
LINE
  5
1AF
100
AcDbEntity
  8
ﾚｲﾔｰ1
370
    18
  6
Continuous
 62
     7
100
AcDbLine
 10
7118.461805
 20
835.101365
 30
0.0
 11
7032.444557
 21
835.101365
 31
0.0
  0
ELLIPSE
  5
1B0
100
AcDbEntity
  8
ﾚｲﾔｰ1
370
    18
  6
Continuous
 62
     7
100
AcDbEllipse
 10
7218.444557
 20
840.101365
 30
0.0
 11
0.0
 21
4.2499999999999982
 31
0.0
210
0.0
220
0.0
230
-1.0
 40
1.0
 41
-1.5707963267948966
 42
4.7123889803846897
  0
CIRCLE
  5
1B1
100
AcDbEntity
  8
ﾚｲﾔｰ1
370
    18
  6
Continuous
 62
     7
100
AcDbCircle
 10
7218.444557
 20
820.101365
 30
0.0
 40
4.25
210
0.0
220
0.0
230
1.0
  0
LINE
  5
1B2
100
AcDbEntity
  8
ﾚｲﾔｰ1
370
    18
  6
Continuous
 62
     7
100
AcDbLine
 10
7118.427308
 20
835.101365
 30
0.0
 11
7204.444557
 21
835.101365
 31
0.0
  0
LINE
  5
1B3
100
AcDbEntity
  8
ﾚｲﾔｰ1
370
    18
  6
Continuous
 62
     7
100
AcDbLine
 10
7364.444557
 20
831.801365
 30
0.0
 11
7337.944557
 21
831.801365
 31
0.0
  0
CIRCLE
  5
1B4
100
AcDbEntity
  8
ﾚｲﾔｰ1
370
    18
  6
Continuous
 62
     7
100
AcDbCircle
 10
7218.444557
 20
960.101365
 30
0.0
 40
4.25
210
0.0
220
0.0
230
1.0
  0
LINE
  5
1B5
100
AcDbEntity
  8
ﾚｲﾔｰ1
370
    18
  6
Continuous
 62
     7
100
AcDbLine
 10
7234.444557
 20
835.101365
 30
0.0
 11
7337.944557
 21
835.101365
 31
0.0
  0
LINE
  5
1B6
100
AcDbEntity
  8
ﾚｲﾔｰ1
370
    18
  6
Continuous
 62
     7
100
AcDbLine
 10
7118.444557
 20
774.501365
 30
0.0
 11
7204.444557
 21
774.501365
 31
0.0
  0
LINE
  5
1B7
100
AcDbEntity
  8
ﾚｲﾔｰ1
370
    18
  6
Continuous
 62
     7
100
AcDbLine
 10
7118.444557
 20
774.501365
 30
0.0
 11
7032.444557
 21
774.501365
 31
0.0
  0
DIMENSION
  5
1C4
100
AcDbEntity
  8
寸法線
370
     5
  6
Continuous
 62
     5
100
AcDbDimension
  2
*D4
 10
7178.444557
 20
894.608447
 30
0.0
 11
7118.444557
 21
894.608447
 31
0.0
 71
     5
 72
     1
 41
1.0
 42
0.0
  3
DS1
100
AcDbAlignedDimension
 13
7058.444557
 23
774.501365
 33
0.0
 14
7178.444557
 24
774.501365
 34
0.0
100
AcDbRotatedDimension
  0
CIRCLE
  5
1C6
100
AcDbEntity
  8
ﾚｲﾔｰ1
370
    18
  6
Continuous
 62
     7
100
AcDbCircle
 10
7218.444557
 20
860.101365
 30
0.0
 40
4.25
210
0.0
220
0.0
230
1.0
  0
ELLIPSE
  5
1C7
100
AcDbEntity
  8
ﾚｲﾔｰ1
370
    18
  6
Continuous
 62
     7
100
AcDbEllipse
 10
7218.444557
 20
780.101365
 30
0.0
 11
-4.1927195056359778
 21
0.695415808761026
 31
0.0
210
0.0
220
0.0
230
-1.0
 40
1.0
 41
0.0
 42
6.2831853071795862
  0
LINE
  5
1C8
100
AcDbEntity
  8
ﾚｲﾔｰ1
370
    18
  6
Continuous
 62
     7
100
AcDbLine
 10
7368.444557
 20
781.801365
 30
0.0
 11
7368.444557
 21
827.801365
 31
0.0
  0
ELLIPSE
  5
1C9
100
AcDbEntity
  8
ﾚｲﾔｰ1
370
    18
  6
Continuous
 62
     7
100
AcDbEllipse
 10
7218.444557
 20
799.963533
 30
0.0
 11
-4.250000000007276
 21
0.000000000007276
 31
0.0
210
0.0
220
0.0
230
-0.9999999999999999
 40
1.0
 41
0.0
 42
6.2831853071795862
  0
LINE
  5
1CA
100
AcDbEntity
  8
ﾚｲﾔｰ1
370
    18
  6
Continuous
 62
     7
100
AcDbLine
 10
7757.627446
 20
-67.416934
 30
0.0
 11
7756.947607
 21
-69.509257
 31
0.0
  0
LINE
  5
1CB
100
AcDbEntity
  8
ﾚｲﾔｰ1
370
    18
  6
Continuous
 62
     7
100
AcDbLine
 10
7338.444557
 20
846.801365
 30
0.0
 11
7338.444557
 21
849.001365
 31
0.0
  0
LINE
  5
1CC
100
AcDbEntity
  8
ﾚｲﾔｰ1
370
    18
  6
Continuous
 62
     7
100
AcDbLine
 10
7368.444557
 20
846.801365
 30
0.0
 11
7368.444557
 21
849.001365
 31
0.0
  0
CIRCLE
  5
1CD
100
AcDbEntity
  8
ﾚｲﾔｰ1
370
    18
  6
Continuous
 62
     7
100
AcDbCircle
 10
7018.444557
 20
980.101365
 30
0.0
 40
4.25
  0
CIRCLE
  5
1CE
100
AcDbEntity
  8
ﾚｲﾔｰ1
370
    18
  6
Continuous
 62
     7
100
AcDbCircle
 10
7018.444557
 20
920.101365
 30
0.0
 40
4.25
  0
CIRCLE
  5
1CF
100
AcDbEntity
  8
ﾚｲﾔｰ1
370
    18
  6
Continuous
 62
     7
100
AcDbCircle
 10
7018.444557
 20
960.101365
 30
0.0
 40
4.25
  0
CIRCLE
  5
1D0
100
AcDbEntity
  8
ﾚｲﾔｰ1
370
    18
  6
Continuous
 62
     7
100
AcDbCircle
 10
7018.444557
 20
820.101365
 30
0.0
 40
4.25
  0
ELLIPSE
  5
1D1
100
AcDbEntity
  8
ﾚｲﾔｰ1
370
    18
  6
Continuous
 62
     7
100
AcDbEllipse
 10
7018.444557
 20
780.101365
 30
0.0
 11
4.1927195056359778
 21
0.695415808761026
 31
0.0
210
0.0
220
0.0
230
1.0
 40
1.0
 41
0.0
 42
6.2831853071795862
  0
ELLIPSE
  5
1D2
100
AcDbEntity
  8
ﾚｲﾔｰ1
370
    18
  6
Continuous
 62
     7
100
AcDbEllipse
 10
7018.444557
 20
840.101365
 30
0.0
 11
0.0
 21
4.2499999999999982
 31
0.0
210
0.0
220
0.0
230
1.0
 40
1.0
 41
-1.5707963267948966
 42
4.7123889803846897
  0
CIRCLE
  5
1D3
100
AcDbEntity
  8
ﾚｲﾔｰ1
370
    18
  6
Continuous
 62
     7
100
AcDbCircle
 10
7018.444557
 20
880.101365
 30
0.0
 40
4.25
  0
CIRCLE
  5
1D4
100
AcDbEntity
  8
ﾚｲﾔｰ1
370
    18
  6
Continuous
 62
     7
100
AcDbCircle
 10
7018.444557
 20
860.101365
 30
0.0
 40
4.25
  0
CIRCLE
  5
1D5
100
AcDbEntity
  8
ﾚｲﾔｰ1
370
    18
  6
Continuous
 62
     7
100
AcDbCircle
 10
7018.444557
 20
900.101365
 30
0.0
 40
4.25
  0
CIRCLE
  5
1D6
100
AcDbEntity
  8
ﾚｲﾔｰ1
370
    18
  6
Continuous
 62
     7
100
AcDbCircle
 10
7018.444557
 20
940.101365
 30
0.0
 40
4.25
  0
ELLIPSE
  5
1D7
100
AcDbEntity
  8
ﾚｲﾔｰ1
370
    18
  6
Continuous
 62
     7
100
AcDbEllipse
 10
7018.444557
 20
799.963533
 30
0.0
 11
4.250000000007276
 21
0.000000000007276
 31
0.0
210
0.0
220
0.0
230
1.0
 40
1.0
 41
0.0
 42
6.2831853071795862
  0
ELLIPSE
  5
1D8
100
AcDbEntity
  8
ﾚｲﾔｰ1
370
    18
  6
Continuous
 62
     7
100
AcDbEllipse
 10
7018.409008
 20
1000.101365
 30
0.0
 11
0.000000000007276
 21
-4.2500000000059117
 31
0.0
210
0.0
220
0.0
230
1.0
 40
1.0
 41
0.0
 42
6.2831853071795862
  0
LINE
  5
1D9
100
AcDbEntity
  8
ﾚｲﾔｰ1
370
    18
  6
Continuous
 62
     7
100
AcDbLine
 10
7337.944557
 20
835.101365
 30
0.0
 11
7337.944557
 21
831.801365
 31
0.0
  0
LINE
  5
1DA
100
AcDbEntity
  8
ﾚｲﾔｰ1
370
    18
  6
Continuous
 62
     7
100
AcDbLine
 10
7234.444557
 20
774.501365
 30
0.0
 11
7337.944557
 21
774.501365
 31
0.0
  0
CIRCLE
  5
1DB
100
AcDbEntity
  8
ﾚｲﾔｰ1
370
    18
  6
Continuous
 62
     7
100
AcDbCircle
 10
7353.444557
 20
784.801365
 30
0.0
 40
1.5
210
0.0
220
0.0
230
1.0
  0
CIRCLE
  5
1DC
100
AcDbEntity
  8
ﾚｲﾔｰ1
370
    18
  6
Continuous
 62
     7
100
AcDbCircle
 10
7218.444557
 20
920.101365
 30
0.0
 40
4.25
210
0.0
220
0.0
230
1.0
  0
DIMENSION
  5
1E9
100
AcDbEntity
  8
寸法線
370
     5
  6
Continuous
 62
     5
100
AcDbDimension
  2
*D5
 10
7218.480105
 20
1051.504664
 30
0.0
 11
7118.462331
 21
1051.504664
 31
0.0
 71
     5
 72
     1
 41
1.0
 42
0.0
  3
DS1
100
AcDbAlignedDimension
 13
7018.444557
 23
1013.387568
 33
0.0
 14
7218.480105
 24
1013.387568
 34
0.0
100
AcDbRotatedDimension
  0
CIRCLE
  5
1EA
100
AcDbEntity
  8
ﾚｲﾔｰ1
370
    18
  6
Continuous
 62
     7
100
AcDbCircle
 10
7218.444557
 20
980.101365
 30
0.0
 40
4.25
210
0.0
220
0.0
230
1.0
  0
CIRCLE
  5
1EB
100
AcDbEntity
  8
ﾚｲﾔｰ1
370
    18
  6
Continuous
 62
     7
100
AcDbCircle
 10
7218.444557
 20
940.101365
 30
0.0
 40
4.25
210
0.0
220
0.0
230
1.0
  0
ARC
  5
1EC
100
AcDbEntity
  8
ﾚｲﾔｰ1
370
    18
  6
Continuous
 62
     7
100
AcDbCircle
 10
7208.444557
 20
1006.101365
 30
0.0
 40
4.0
210
0.0
220
0.0
230
1.0
100
AcDbArc
 50
90.0
 51
180.0
  0
LINE
  5
1ED
100
AcDbEntity
  8
レイヤー 1
370
    18
  6
Continuous
 62
     7
100
AcDbLine
 10
7338.444557
 20
831.801365
 30
0.0
 11
7338.444557
 21
846.801365
 31
0.0
  0
CIRCLE
  5
1EE
100
AcDbEntity
  8
ﾚｲﾔｰ1
370
    18
  6
Continuous
 62
     7
100
AcDbCircle
 10
7353.444557
 20
824.801365
 30
0.0
 40
1.5
210
0.0
220
0.0
230
1.0
  0
ARC
  5
1EF
100
AcDbEntity
  8
ﾚｲﾔｰ1
370
    18
  6
Continuous
 62
     7
100
AcDbCircle
 10
7364.444557
 20
827.801365
 30
0.0
 40
4.0
210
0.0
220
0.0
230
1.0
100
AcDbArc
 50
0.0
 51
90.0
  0
LINE
  5
1F0
100
AcDbEntity
  8
ﾚｲﾔｰ1
370
    18
  6
Continuous
 62
     7
100
AcDbLine
 10
7169.694557
 20
693.401372
 30
0.0
 11
7169.694557
 21
693.401374
 31
0.0
  0
LINE
  5
1F1
100
AcDbEntity
  8
ﾚｲﾔｰ1
370
    18
  6
Continuous
 62
     7
100
AcDbLine
 10
7163.194557
 20
673.40138
 30
0.0
 11
7163.194557
 21
693.401376
 31
0.0
  0
LINE
  5
1F2
100
AcDbEntity
  8
ﾚｲﾔｰ1
370
    18
  6
Continuous
 62
     7
100
AcDbLine
 10
7118.461805
 20
635.050255
 30
0.0
 11
7032.444557
 21
635.050255
 31
0.0
  0
LINE
  5
1F3
100
AcDbEntity
  8
ﾚｲﾔｰ1
370
    18
  6
Continuous
 62
     7
100
AcDbLine
 10
7163.194557
 20
638.401385
 30
0.0
 11
7163.194557
 21
658.401381
 31
0.0
  0
LINE
  5
1F4
100
AcDbEntity
  8
ﾚｲﾔｰ1
370
    18
  6
Continuous
 62
     7
100
AcDbLine
 10
7234.444557
 20
635.050255
 30
0.0
 11
7337.944557
 21
635.050255
 31
0.0
  0
ARC
  5
1F5
100
AcDbEntity
  8
ﾚｲﾔｰ1
370
    18
  6
Continuous
 62
     7
100
AcDbCircle
 10
7218.480105
 20
660.101356
 30
0.0
 40
4.25
210
0.0
220
0.0
230
1.0
100
AcDbArc
 50
0.0
 51
180.0
  0
ARC
  5
1F6
100
AcDbEntity
  8
ﾚｲﾔｰ1
370
    18
  6
Continuous
 62
     7
100
AcDbCircle
 10
7218.480105
 20
680.101356
 30
0.0
 40
4.25
210
0.0
220
0.0
230
1.0
100
AcDbArc
 50
-180.0
 51
0.0
  0
LINE
  5
1F7
100
AcDbEntity
  8
ﾚｲﾔｰ1
370
    18
  6
Continuous
 62
     7
100
AcDbLine
 10
7169.694557
 20
673.401376
 30
0.0
 11
7169.694557
 21
693.401372
 31
0.0
  0
CIRCLE
  5
1F8
100
AcDbEntity
  8
ﾚｲﾔｰ1
370
    18
  6
Continuous
 62
     7
100
AcDbCircle
 10
7353.444557
 20
624.750255
 30
0.0
 40
5.0
210
0.0
220
0.0
230
1.0
  0
LINE
  5
1F9
100
AcDbEntity
  8
ﾚｲﾔｰ1
370
    18
  6
Continuous
 62
     7
100
AcDbLine
 10
7364.444557
 20
631.750255
 30
0.0
 11
7337.944557
 21
631.750255
 31
0.0
  0
LINE
  5
1FA
100
AcDbEntity
  8
ﾚｲﾔｰ1
370
    18
  6
Continuous
 62
     7
100
AcDbLine
 10
7337.944557
 20
635.050255
 30
0.0
 11
7337.944557
 21
631.750255
 31
0.0
  0
CIRCLE
  5
1FB
100
AcDbEntity
  8
ﾚｲﾔｰ1
370
    18
  6
Continuous
 62
     7
100
AcDbCircle
 10
7353.444557
 20
624.750255
 30
0.0
 40
1.5
210
0.0
220
0.0
230
1.0
  0
LINE
  5
1FC
100
AcDbEntity
  8
ﾚｲﾔｰ1
370
    18
  6
Continuous
 62
     7
100
AcDbLine
 10
7073.694557
 20
673.40138
 30
0.0
 11
7073.694556
 21
693.401376
 31
0.0
  0
LINE
  5
1FD
100
AcDbEntity
  8
ﾚｲﾔｰ1
370
    18
  6
Continuous
 62
     7
100
AcDbLine
 10
7067.194556
 20
693.401372
 30
0.0
 11
7067.194556
 21
693.401374
 31
0.0
  0
ARC
  5
1FE
100
AcDbEntity
  8
ﾚｲﾔｰ1
370
    18
  6
Continuous
 62
     7
100
AcDbCircle
 10
7070.444556
 20
693.401372
 30
0.0
 40
3.25
100
AcDbArc
 50
-0.000037
 51
179.999951
  0
LINE
  5
1FF
100
AcDbEntity
  8
ﾚｲﾔｰ1
370
    18
  6
Continuous
 62
     7
100
AcDbLine
 10
7214.230105
 20
600.101365
 30
0.0
 11
7214.230105
 21
660.101356
 31
0.0
  0
ARC
  5
200
100
AcDbEntity
  8
ﾚｲﾔｰ1
370
    18
  6
Continuous
 62
     7
100
AcDbCircle
 10
7166.444557
 20
693.401372
 30
0.0
 40
3.25
210
0.0
220
0.0
230
1.0
100
AcDbArc
 50
0.000049
 51
-179.999963
  0
LINE
  5
201
100
AcDbEntity
  8
ﾚｲﾔｰ1
370
    18
  6
Continuous
 62
     7
100
AcDbLine
 10
7118.427308
 20
635.050255
 30
0.0
 11
7204.444557
 21
635.050255
 31
0.0
  0
LINE
  5
202
100
AcDbEntity
  8
ﾚｲﾔｰ1
370
    18
  6
Continuous
 62
     7
100
AcDbLine
 10
7022.659008
 20
680.101356
 30
0.0
 11
7022.659008
 21
760.099759
 31
0.0
  0
LINE
  5
203
100
AcDbEntity
  8
ﾚｲﾔｰ1
370
    18
  6
Continuous
 62
     7
100
AcDbLine
 10
7214.230105
 20
680.101356
 30
0.0
 11
7214.230105
 21
760.099759
 31
0.0
  0
LINE
  5
204
100
AcDbEntity
  8
ﾚｲﾔｰ1
370
    18
  6
Continuous
 62
     7
100
AcDbLine
 10
7222.730105
 20
680.101356
 30
0.0
 11
7222.730105
 21
760.099759
 31
0.0
  0
ELLIPSE
  5
205
100
AcDbEntity
  8
ﾚｲﾔｰ1
370
    18
  6
Continuous
 62
     7
100
AcDbEllipse
 10
7367.444557
 20
849.001365
 30
0.0
 11
0.9999999999999997
 21
-0.0000000000005076
 31
0.0
210
0.0
220
0.0
230
-1.0
 40
1.0
 41
-1.5707963267948966
 42
0.0
  0
LINE
  5
206
100
AcDbEntity
  8
ﾚｲﾔｰ1
370
    18
  6
Continuous
 62
     7
100
AcDbLine
 10
7367.444557
 20
850.001365
 30
0.0
 11
7339.444557
 21
850.001365
 31
0.0
  0
LINE
  5
207
100
AcDbEntity
  8
ﾚｲﾔｰ1
370
    18
  6
Continuous
 62
     7
100
AcDbLine
 10
7338.444557
 20
846.801365
 30
0.0
 11
7368.444557
 21
846.801365
 31
0.0
  0
ELLIPSE
  5
208
100
AcDbEntity
  8
ﾚｲﾔｰ1
370
    18
  6
Continuous
 62
     7
100
AcDbEllipse
 10
7339.444557
 20
849.001365
 30
0.0
 11
-0.9999999999999997
 21
0.0000000000005076
 31
0.0
210
0.0
220
0.0
230
1.0
 40
1.0
 41
-1.5707963267948966
 42
0.0
  0
ELLIPSE
  5
209
100
AcDbEntity
  8
ﾚｲﾔｰ1
370
    18
  6
Continuous
 62
     7
100
AcDbEllipse
 10
7166.444557
 20
673.401386
 30
0.0
 11
3.2500000000031828
 21
-0.0000029710354272
 31
0.0
210
0.0
220
0.0
230
-1.0
 40
1.0
 41
0.0
 42
3.1415897945941076
  0
LINE
  5
20A
100
AcDbEntity
  8
ﾚｲﾔｰ1
370
    18
  6
Continuous
 62
     7
100
AcDbLine
 10
7169.694557
 20
658.401377
 30
0.0
 11
7169.694557
 21
658.40138
 31
0.0
  0
ELLIPSE
  5
20B
100
AcDbEntity
  8
ﾚｲﾔｰ1
370
    18
  6
Continuous
 62
     7
100
AcDbEllipse
 10
7166.444557
 20
658.401377
 30
0.0
 11
-3.2500000000081855
 21
-0.0000020973093359
 31
0.0
210
0.0
220
0.0
230
-1.0
 40
1.0
 41
0.0
 42
3.1415924487797016
  0
LINE
  5
20C
100
AcDbEntity
  8
ﾚｲﾔｰ1
370
    18
  6
Continuous
 62
     7
100
AcDbLine
 10
7169.694557
 20
708.401366
 30
0.0
 11
7169.694557
 21
728.401362
 31
0.0
  0
ELLIPSE
  5
20D
100
AcDbEntity
  8
ﾚｲﾔｰ1
370
    18
  6
Continuous
 62
     7
100
AcDbEllipse
 10
7166.444557
 20
743.401372
 30
0.0
 11
3.2500000000072764
 21
0.000000000000002
 31
0.0
210
0.0
220
0.0
230
-0.9999999999999999
 40
1.0
 41
0.0
 42
3.141593800032211
  0
ARC
  5
20E
100
AcDbEntity
  8
ﾚｲﾔｰ1
370
    18
  6
Continuous
 62
     7
100
AcDbCircle
 10
7166.444557
 20
763.401361
 30
0.0
 40
3.25
210
0.0
220
0.0
230
0.9999999999999999
100
AcDbArc
 50
0.000049
 51
-179.999963
  0
LINE
  5
20F
100
AcDbEntity
  8
ﾚｲﾔｰ1
370
    18
  6
Continuous
 62
     7
100
AcDbLine
 10
7169.694557
 20
743.401365
 30
0.0
 11
7169.694557
 21
763.401361
 31
0.0
  0
LINE
  5
210
100
AcDbEntity
  8
ﾚｲﾔｰ1
370
    18
  6
Continuous
 62
     7
100
AcDbLine
 10
7163.194557
 20
743.401369
 30
0.0
 11
7163.194557
 21
763.401365
 31
0.0
  0
ARC
  5
211
100
AcDbEntity
  8
ﾚｲﾔｰ1
370
    18
  6
Continuous
 62
     7
100
AcDbCircle
 10
7070.444556
 20
763.401361
 30
0.0
 40
3.25
100
AcDbArc
 50
-0.000037
 51
179.999951
  0
ARC
  5
212
100
AcDbEntity
  8
ﾚｲﾔｰ1
370
    18
  6
Continuous
 62
     7
100
AcDbCircle
 10
7218.480105
 20
760.101365
 30
0.0
 40
4.25
210
0.0
220
0.0
230
1.0
100
AcDbArc
 50
0.0
 51
180.0
  0
LINE
  5
213
100
AcDbEntity
  8
ﾚｲﾔｰ1
370
    18
  6
Continuous
 62
     7
100
AcDbLine
 10
7169.694557
 20
763.401361
 30
0.0
 11
7169.694557
 21
763.401363
 31
0.0
  0
LINE
  5
214
100
AcDbEntity
  8
ﾚｲﾔｰ1
370
    18
  6
Continuous
 62
     7
100
AcDbLine
 10
7067.194557
 20
673.401376
 30
0.0
 11
7067.194556
 21
693.401372
 31
0.0
  0
LINE
  5
215
100
AcDbEntity
  8
ﾚｲﾔｰ1
370
    18
  6
Continuous
 62
     7
100
AcDbLine
 10
7067.194557
 20
708.401366
 30
0.0
 11
7067.194556
 21
728.401362
 31
0.0
  0
ELLIPSE
  5
216
100
AcDbEntity
  8
ﾚｲﾔｰ1
370
    18
  6
Continuous
 62
     7
100
AcDbEllipse
 10
7070.444556
 20
658.401377
 30
0.0
 11
3.2500000000081855
 21
-0.0000020973093359
 31
0.0
210
0.0
220
0.0
230
1.0
 40
1.0
 41
0.0
 42
3.1415924487797016
  0
LINE
  5
217
100
AcDbEntity
  8
ﾚｲﾔｰ1
370
    18
  6
Continuous
 62
     7
100
AcDbLine
 10
7222.730105
 20
600.101365
 30
0.0
 11
7222.730105
 21
660.101356
 31
0.0
  0
ELLIPSE
  5
218
100
AcDbEntity
  8
ﾚｲﾔｰ1
370
    18
  6
Continuous
 62
     7
100
AcDbEllipse
 10
7070.444557
 20
638.401388
 30
0.0
 11
0.0000029710242859
 21
-3.2500000000000009
 31
0.0
210
0.0
220
0.0
230
1.0
 40
1.0
 41
-1.5707963267948966
 42
1.570793467799211
  0
ELLIPSE
  5
219
100
AcDbEntity
  8
ﾚｲﾔｰ1
370
    18
  6
Continuous
 62
     7
100
AcDbEllipse
 10
7070.444556
 20
728.401362
 30
0.0
 11
3.2500000000026397
 21
-0.0000020972918806
 31
0.0
210
0.0
220
0.0
230
1.0
 40
1.0
 41
0.0
 42
3.1415924487797016
  0
ELLIPSE
  5
21A
100
AcDbEntity
  8
ﾚｲﾔｰ1
370
    18
  6
Continuous
 62
     7
100
AcDbEllipse
 10
7070.444557
 20
708.401373
 30
0.0
 11
0.0000029710242859
 21
-3.2500000000000009
 31
0.0
210
0.0
220
0.0
230
1.0
 40
1.0
 41
-1.5707963267948966
 42
1.570793467799211
  0
LINE
  5
21B
100
AcDbEntity
  8
ﾚｲﾔｰ1
370
    18
  6
Continuous
 62
     7
100
AcDbLine
 10
7067.194556
 20
763.401361
 30
0.0
 11
7067.194556
 21
763.401363
 31
0.0
  0
LINE
  5
21C
100
AcDbEntity
  8
ﾚｲﾔｰ1
370
    18
  6
Continuous
 62
     7
100
AcDbLine
 10
7073.694557
 20
743.401369
 30
0.0
 11
7073.694556
 21
763.401365
 31
0.0
  0
LINE
  5
21D
100
AcDbEntity
  8
ﾚｲﾔｰ1
370
    18
  6
Continuous
 62
     7
100
AcDbLine
 10
7067.194557
 20
743.401365
 30
0.0
 11
7067.194556
 21
763.401361
 31
0.0
  0
LINE
  5
21E
100
AcDbEntity
  8
ﾚｲﾔｰ1
370
    18
  6
Continuous
 62
     7
100
AcDbLine
 10
7163.194557
 20
708.40137
 30
0.0
 11
7163.194557
 21
728.401366
 31
0.0
  0
LINE
  5
21F
100
AcDbEntity
  8
ﾚｲﾔｰ1
370
    18
  6
Continuous
 62
     7
100
AcDbLine
 10
7169.694557
 20
728.401362
 30
0.0
 11
7169.694557
 21
728.401365
 31
0.0
  0
ELLIPSE
  5
220
100
AcDbEntity
  8
ﾚｲﾔｰ1
370
    18
  6
Continuous
 62
     7
100
AcDbEllipse
 10
7166.444557
 20
728.401362
 30
0.0
 11
-3.2500000000026397
 21
-0.0000020972918806
 31
0.0
210
0.0
220
0.0
230
-1.0
 40
1.0
 41
0.0
 42
3.1415924487797016
  0
ELLIPSE
  5
221
100
AcDbEntity
  8
ﾚｲﾔｰ1
370
    18
  6
Continuous
 62
     7
100
AcDbEllipse
 10
7166.444557
 20
638.401388
 30
0.0
 11
-0.0000029710242859
 21
-3.2500000000000009
 31
0.0
210
0.0
220
0.0
230
-1.0
 40
1.0
 41
-1.5707963267948966
 42
1.570793467799211
  0
ARC
  5
222
100
AcDbEntity
  8
ﾚｲﾔｰ1
370
    18
  6
Continuous
 62
     7
100
AcDbCircle
 10
7118.513863
 20
576.369429
 30
0.0
 40
6.268064
210
0.0
220
0.0
230
1.0
100
AcDbArc
 50
-90.000012
 51
-62.577466
  0
LINE
  5
223
100
AcDbEntity
  8
ﾚｲﾔｰ1
370
    18
  6
Continuous
 62
     7
100
AcDbLine
 10
7368.801411
 20
582.801365
 30
0.0
 11
7368.444557
 21
582.801365
 31
0.0
  0
LINE
  5
224
100
AcDbEntity
  8
ﾚｲﾔｰ1
370
    18
  6
Continuous
 62
     7
100
AcDbLine
 10
7121.444557
 20
570.101365
 30
0.0
 11
7121.444557
 21
569.001365
 31
0.0
  0
ARC
  5
225
100
AcDbEntity
  8
ﾚｲﾔｰ1
370
    18
  6
Continuous
 62
     7
100
AcDbCircle
 10
7364.444557
 20
581.750255
 30
0.0
 40
4.0
100
AcDbArc
 50
-90.0
 51
0.0
  0
LINE
  5
226
100
AcDbEntity
  8
unassigned
370
    18
  6
Continuous
 62
     7
100
AcDbLine
 10
7112.60175
 20
570.60568
 30
0.0
 11
7113.47525
 21
570.101365
 31
0.0
  0
LINE
  5
227
100
AcDbEntity
  8
ﾚｲﾔｰ1
370
    18
  6
Continuous
 62
     7
100
AcDbLine
 10
7121.400613
 20
574.450255
 30
0.0
 11
7121.400613
 21
570.80568
 31
0.0
  0
LINE
  5
228
100
AcDbEntity
  8
unassigned
370
    18
  6
Continuous
 62
     7
100
AcDbLine
 10
7124.287363
 20
574.450255
 30
0.0
 11
7124.287363
 21
570.60568
 31
0.0
  0
CIRCLE
  5
229
100
AcDbEntity
  8
ﾚｲﾔｰ1
370
    18
  6
Continuous
 62
     7
100
AcDbCircle
 10
7353.444557
 20
584.750255
 30
0.0
 40
5.0
210
0.0
220
0.0
230
1.0
  0
ARC
  5
22A
100
AcDbEntity
  8
ﾚｲﾔｰ1
370
    18
  6
Continuous
 62
     7
100
AcDbCircle
 10
7363.144557
 20
589.801365
 30
0.0
 40
9.0
100
AcDbArc
 50
-51.057559
 51
51.057559
  0
LINE
  5
22B
100
AcDbEntity
  8
ﾚｲﾔｰ1
370
    18
  6
Continuous
 62
     7
100
AcDbLine
 10
7368.444557
 20
582.801365
 30
0.0
 11
7368.444557
 21
596.801365
 31
0.0
  0
LINE
  5
22C
100
AcDbEntity
  8
ﾚｲﾔｰ1
370
    18
  6
Continuous
 62
     7
100
AcDbLine
 10
7368.801411
 20
596.801365
 30
0.0
 11
7368.801411
 21
582.801365
 31
0.0
  0
LINE
  5
22D
100
AcDbEntity
  8
ﾚｲﾔｰ1
370
    18
  6
Continuous
 62
     7
100
AcDbLine
 10
7121.444557
 20
569.001365
 30
0.0
 11
7118.444557
 21
569.001365
 31
0.0
  0
ARC
  5
22E
100
AcDbEntity
  8
ﾚｲﾔｰ1
370
    18
  6
Continuous
 62
     7
100
AcDbCircle
 10
7113.946407
 20
572.130551
 30
0.0
 40
2.03306
100
AcDbArc
 50
-86.462349
 51
-40.667135
  0
LINE
  5
22F
100
AcDbEntity
  8
ﾚｲﾔｰ1
370
    18
  6
Continuous
 62
     7
100
AcDbLine
 10
7067.194556
 20
728.401362
 30
0.0
 11
7067.194556
 21
728.401365
 31
0.0
  0
LINE
  5
230
100
AcDbEntity
  8
ﾚｲﾔｰ1
370
    18
  6
Continuous
 62
     7
100
AcDbLine
 10
7073.694557
 20
708.40137
 30
0.0
 11
7073.694556
 21
728.401366
 31
0.0
  0
ELLIPSE
  5
231
100
AcDbEntity
  8
ﾚｲﾔｰ1
370
    18
  6
Continuous
 62
     7
100
AcDbEllipse
 10
7070.444557
 20
673.401386
 30
0.0
 11
-3.2500000000031828
 21
-0.0000029710354272
 31
0.0
210
0.0
220
0.0
230
1.0
 40
1.0
 41
0.0
 42
3.1415897945941076
  0
LINE
  5
232
100
AcDbEntity
  8
ﾚｲﾔｰ1
370
    18
  6
Continuous
 62
     7
100
AcDbLine
 10
7067.194557
 20
638.401381
 30
0.0
 11
7067.194556
 21
658.401377
 31
0.0
  0
ARC
  5
233
100
AcDbEntity
  8
ﾚｲﾔｰ1
370
    18
  6
Continuous
 62
     7
100
AcDbCircle
 10
7364.444557
 20
627.750255
 30
0.0
 40
4.0
210
0.0
220
0.0
230
1.0
100
AcDbArc
 50
0.0
 51
90.0
  0
LINE
  5
234
100
AcDbEntity
  8
ﾚｲﾔｰ1
370
    18
  6
Continuous
 62
     7
100
AcDbLine
 10
7067.194556
 20
658.401377
 30
0.0
 11
7067.194556
 21
658.40138
 31
0.0
  0
LINE
  5
235
100
AcDbEntity
  8
ﾚｲﾔｰ1
370
    18
  6
Continuous
 62
     7
100
AcDbLine
 10
7073.694557
 20
638.401385
 30
0.0
 11
7073.694556
 21
658.401381
 31
0.0
  0
ELLIPSE
  5
236
100
AcDbEntity
  8
ﾚｲﾔｰ1
370
    18
  6
Continuous
 62
     7
100
AcDbEllipse
 10
7070.444557
 20
743.401372
 30
0.0
 11
-3.2500000000072764
 21
0.000000000000002
 31
0.0
210
0.0
220
0.0
230
1.0
 40
1.0
 41
0.0
 42
3.141593800032211
  0
LINE
  5
237
100
AcDbEntity
  8
ﾚｲﾔｰ1
370
    18
  6
Continuous
 62
     7
100
AcDbLine
 10
7022.659008
 20
600.101365
 30
0.0
 11
7022.659008
 21
660.101356
 31
0.0
  0
LINE
  5
238
100
AcDbEntity
  8
ﾚｲﾔｰ1
370
    18
  6
Continuous
 62
     7
100
AcDbLine
 10
7214.230105
 20
635.050255
 30
0.0
 11
7222.730105
 21
635.050255
 31
0.0
  0
ELLIPSE
  5
239
100
AcDbEntity
  8
ﾚｲﾔｰ1
370
    18
  6
Continuous
 62
     7
100
AcDbEllipse
 10
7166.444557
 20
708.401373
 30
0.0
 11
-0.0000029710242859
 21
-3.2500000000000009
 31
0.0
210
0.0
220
0.0
230
-1.0
 40
1.0
 41
-1.5707963267948966
 42
1.570793467799211
  0
LINE
  5
23A
100
AcDbEntity
  8
ﾚｲﾔｰ1
370
    18
  6
Continuous
 62
     7
100
AcDbLine
 10
7169.694557
 20
638.401381
 30
0.0
 11
7169.694557
 21
658.401377
 31
0.0
  0
LINE
  5
23B
100
AcDbEntity
  8
ﾚｲﾔｰ1
370
    18
  6
Continuous
 62
     7
100
AcDbLine
 10
7022.659008
 20
635.050255
 30
0.0
 11
7014.159008
 21
635.050255
 31
0.0
  0
LINE
  5
23C
100
AcDbEntity
  8
ﾚｲﾔｰ1
370
    18
  6
Continuous
 62
     7
100
AcDbLine
 10
7014.159008
 20
680.101356
 30
0.0
 11
7014.159008
 21
760.099759
 31
0.0
  0
ARC
  5
23D
100
AcDbEntity
  8
ﾚｲﾔｰ1
370
    18
  6
Continuous
 62
     7
100
AcDbCircle
 10
7018.409008
 20
760.101365
 30
0.0
 40
4.25
100
AcDbArc
 50
0.0
 51
-180.0
  0
ARC
  5
23E
100
AcDbEntity
  8
ﾚｲﾔｰ1
370
    18
  6
Continuous
 62
     7
100
AcDbCircle
 10
7018.409008
 20
680.101356
 30
0.0
 40
4.25
100
AcDbArc
 50
180.0
 51
0.0
  0
ARC
  5
23F
100
AcDbEntity
  8
ﾚｲﾔｰ1
370
    18
  6
Continuous
 62
     7
100
AcDbCircle
 10
7018.409008
 20
660.101356
 30
0.0
 40
4.25
100
AcDbArc
 50
0.0
 51
180.0
  0
LINE
  5
240
100
AcDbEntity
  8
ﾚｲﾔｰ1
370
    18
  6
Continuous
 62
     7
100
AcDbLine
 10
7014.159008
 20
600.101365
 30
0.0
 11
7014.159008
 21
660.101356
 31
0.0
  0
ARC
  5
241
100
AcDbEntity
  8
ﾚｲﾔｰ1
370
    18
  6
Continuous
 62
     7
100
AcDbCircle
 10
7018.409008
 20
600.101365
 30
0.0
 40
4.25
100
AcDbArc
 50
180.0
 51
0.0
  0
LINE
  5
242
100
AcDbEntity
  8
ﾚｲﾔｰ1
370
    18
  6
Continuous
 62
     7
100
AcDbLine
 10
7208.444557
 20
590.101365
 30
0.0
 11
7234.444557
 21
590.101365
 31
0.0
  0
ELLIPSE
  5
243
100
AcDbEntity
  8
ﾚｲﾔｰ1
370
    18
  6
Continuous
 62
     7
100
AcDbEllipse
 10
7208.444557
 20
594.101365
 30
0.0
 11
-0.0000000000000002
 21
-3.9999999999999991
 31
0.0
210
0.0
220
0.0
230
1.0
 40
1.0
 41
-1.5707963267948966
 42
0.0000000000017621
  0
ELLIPSE
  5
244
100
AcDbEntity
  8
ﾚｲﾔｰ1
370
    18
  6
Continuous
 62
     7
100
AcDbEllipse
 10
7028.444557
 20
594.101365
 30
0.0
 11
0.0000000000000002
 21
-3.9999999999999991
 31
0.0
210
0.0
220
0.0
230
-1.0
 40
1.0
 41
-1.5707963267948966
 42
0.0000000000017621
  0
ARC
  5
245
100
AcDbEntity
  8
ﾚｲﾔｰ1
370
    18
  6
Continuous
 62
     7
100
AcDbCircle
 10
7218.480105
 20
600.101365
 30
0.0
 40
4.25
210
0.0
220
0.0
230
1.0
100
AcDbArc
 50
180.0
 51
0.0
  0
LINE
  5
246
100
AcDbEntity
  8
ﾚｲﾔｰ1
370
    18
  6
Continuous
 62
     7
100
AcDbLine
 10
7368.444557
 20
596.801365
 30
0.0
 11
7368.801411
 21
596.801365
 31
0.0
  0
CIRCLE
  5
247
100
AcDbEntity
  8
ﾚｲﾔｰ1
370
    18
  6
Continuous
 62
     7
100
AcDbCircle
 10
7353.444557
 20
584.750255
 30
0.0
 40
1.5
210
0.0
220
0.0
230
1.0
  0
LINE
  5
248
100
AcDbEntity
  8
ﾚｲﾔｰ1
370
    18
  6
Continuous
 62
     7
100
AcDbLine
 10
7118.444557
 20
574.450255
 30
0.0
 11
7337.944557
 21
574.450255
 31
0.0
  0
LINE
  5
249
100
AcDbEntity
  8
ﾚｲﾔｰ1
370
    18
  6
Continuous
 62
     7
100
AcDbLine
 10
7337.944557
 20
574.450255
 30
0.0
 11
7337.944557
 21
577.750255
 31
0.0
  0
LINE
  5
24A
100
AcDbEntity
  8
ﾚｲﾔｰ1
370
    18
  6
Continuous
 62
     7
100
AcDbLine
 10
7337.944557
 20
577.750255
 30
0.0
 11
7364.444557
 21
577.750255
 31
0.0
  0
LINE
  5
24B
100
AcDbEntity
  8
ﾚｲﾔｰ1
370
    18
  6
Continuous
 62
     7
100
AcDbLine
 10
7115.444557
 20
570.101365
 30
0.0
 11
7115.444557
 21
569.001365
 31
0.0
  0
LINE
  5
24C
100
AcDbEntity
  8
ﾚｲﾔｰ1
370
    18
  6
Continuous
 62
     7
100
AcDbLine
 10
7115.444557
 20
569.001365
 30
0.0
 11
7118.444557
 21
569.001365
 31
0.0
  0
LINE
  5
24D
100
AcDbEntity
  8
unassigned
370
    18
  6
Continuous
 62
     7
100
AcDbLine
 10
7112.60175
 20
574.450255
 30
0.0
 11
7112.60175
 21
570.60568
 31
0.0
  0
LINE
  5
24E
100
AcDbEntity
  8
ﾚｲﾔｰ1
370
    18
  6
Continuous
 62
     7
100
AcDbLine
 10
7115.4885
 20
574.450255
 30
0.0
 11
7115.4885
 21
570.80568
 31
0.0
  0
ARC
  5
24F
100
AcDbEntity
  8
ﾚｲﾔｰ1
370
    18
  6
Continuous
 62
     7
100
AcDbCircle
 10
7118.37525
 20
576.369429
 30
0.0
 40
6.268064
100
AcDbArc
 50
-117.422534
 51
-89.999988
  0
LINE
  5
250
100
AcDbEntity
  8
unassigned
370
    18
  6
Continuous
 62
     7
100
AcDbLine
 10
7113.47525
 20
570.101365
 30
0.0
 11
7118.375248
 21
570.101365
 31
0.0
  0
LINE
  5
251
100
AcDbEntity
  8
unassigned
370
    18
  6
Continuous
 62
     7
100
AcDbLine
 10
7124.287363
 20
570.60568
 30
0.0
 11
7123.413863
 21
570.101365
 31
0.0
  0
ARC
  5
252
100
AcDbEntity
  8
ﾚｲﾔｰ1
370
    18
  6
Continuous
 62
     7
100
AcDbCircle
 10
7122.942706
 20
572.130551
 30
0.0
 40
2.03306
210
0.0
220
0.0
230
1.0
100
AcDbArc
 50
-139.332865
 51
-93.537651
  0
LINE
  5
253
100
AcDbEntity
  8
unassigned
370
    18
  6
Continuous
 62
     7
100
AcDbLine
 10
7123.413863
 20
570.101365
 30
0.0
 11
7118.513866
 21
570.101365
 31
0.0
  0
LINE
  5
254
100
AcDbEntity
  8
ﾚｲﾔｰ1
370
    18
  6
Continuous
 62
     7
100
AcDbLine
 10
7331.974402
 20
403.201365
 30
0.0
 11
7332.465149
 21
404.051365
 31
0.0
  0
LINE
  5
255
100
AcDbEntity
  8
ﾚｲﾔｰ1
370
    18
  6
Continuous
 62
     7
100
AcDbLine
 10
7368.444557
 20
406.301365
 30
0.0
 11
7368.444557
 21
390.301365
 31
0.0
  0
LINE
  5
256
100
AcDbEntity
  8
ﾚｲﾔｰ1
370
    18
  6
Continuous
 62
     7
100
AcDbLine
 10
7332.465149
 20
404.051365
 30
0.0
 11
7336.444557
 21
404.051365
 31
0.0
  0
LINE
  5
257
100
AcDbEntity
  8
ﾚｲﾔｰ1
370
    18
  6
Continuous
 62
     7
100
AcDbLine
 10
7331.974402
 20
393.401365
 30
0.0
 11
7332.465149
 21
392.551365
 31
0.0
  0
ELLIPSE
  5
258
100
AcDbEntity
  8
ﾚｲﾔｰ1
370
    18
  6
Continuous
 62
     7
100
AcDbEllipse
 10
7334.325141
 20
393.988865
 30
0.0
 11
-1.8599911988567324
 21
1.4375000049772098
 31
0.0
210
0.0
220
0.0
230
1.0
 40
1.0
 41
0.0
 42
0.6579673986526773
  0
LINE
  5
259
100
AcDbEntity
  8
ﾚｲﾔｰ1
370
    18
  6
Continuous
 62
     7
100
AcDbLine
 10
7331.644557
 20
393.551365
 30
0.0
 11
7331.974402
 21
393.551365
 31
0.0
  0
LINE
  5
25A
100
AcDbEntity
  8
ﾚｲﾔｰ1
370
    18
  6
Continuous
 62
     7
100
AcDbLine
 10
7330.103737
 20
401.301365
 30
0.0
 11
7330.103737
 21
395.301365
 31
0.0
  0
LINE
  5
25B
100
AcDbEntity
  8
ﾚｲﾔｰ1
370
    18
  6
Continuous
 62
     7
100
AcDbLine
 10
7371.044557
 20
405.301365
 30
0.0
 11
7371.401411
 21
405.301365
 31
0.0
  0
LINE
  5
25C
100
AcDbEntity
  8
ﾚｲﾔｰ1
370
    18
  6
Continuous
 62
     7
100
AcDbLine
 10
7371.044557
 20
406.454217
 30
0.0
 11
7375.944557
 21
405.391078
 31
0.0
  0
LINE
  5
25D
100
AcDbEntity
  8
ﾚｲﾔｰ1
370
    18
  6
Continuous
 62
     7
100
AcDbLine
 10
7371.044557
 20
390.148512
 30
0.0
 11
7375.944557
 21
391.211652
 31
0.0
  0
LINE
  5
25E
100
AcDbEntity
  8
ﾚｲﾔｰ1
370
    18
  6
Continuous
 62
     7
100
AcDbLine
 10
7369.444557
 20
408.301365
 30
0.0
 11
7371.044557
 21
408.301365
 31
0.0
  0
ARC
  5
25F
100
AcDbEntity
  8
ﾚｲﾔｰ1
370
    18
  6
Continuous
 62
     7
100
AcDbCircle
 10
7365.744557
 20
398.301365
 30
0.0
 40
9.0
100
AcDbArc
 50
-51.057559
 51
51.057559
  0
LINE
  5
260
100
AcDbEntity
  8
ﾚｲﾔｰ1
370
    18
  6
Continuous
 62
     7
100
AcDbLine
 10
7371.044557
 20
408.301363
 30
0.0
 11
7371.044557
 21
388.297677
 31
0.0
  0
LINE
  5
261
100
AcDbEntity
  8
ﾚｲﾔｰ1
370
    18
  6
Continuous
 62
     7
100
AcDbLine
 10
7369.444557
 20
388.297679
 30
0.0
 11
7371.044557
 21
388.297679
 31
0.0
  0
LINE
  5
262
100
AcDbEntity
  8
ﾚｲﾔｰ1
370
    18
  6
Continuous
 62
     7
100
AcDbLine
 10
7337.444557
 20
406.301365
 30
0.0
 11
7337.444557
 21
390.301365
 31
0.0
  0
LINE
  5
263
100
AcDbEntity
  8
ﾚｲﾔｰ1
370
    18
  6
Continuous
 62
     7
100
AcDbLine
 10
7331.144557
 20
401.301365
 30
0.0
 11
7330.103737
 21
401.301365
 31
0.0
  0
LINE
  5
264
100
AcDbEntity
  8
ﾚｲﾔｰ1
370
    18
  6
Continuous
 62
     7
100
AcDbLine
 10
7336.444557
 20
404.551365
 30
0.0
 11
7336.444557
 21
392.051365
 31
0.0
  0
LINE
  5
265
100
AcDbEntity
  8
ﾚｲﾔｰ1
370
    18
  6
Continuous
 62
     7
100
AcDbLine
 10
7337.444557
 20
404.551365
 30
0.0
 11
7337.444557
 21
392.051365
 31
0.0
  0
LINE
  5
266
100
AcDbEntity
  8
ﾚｲﾔｰ1
370
    18
  6
Continuous
 62
     7
100
AcDbLine
 10
7337.444557
 20
406.301365
 30
0.0
 11
7338.444557
 21
406.301365
 31
0.0
  0
LINE
  5
267
100
AcDbEntity
  8
ﾚｲﾔｰ1
370
    18
  6
Continuous
 62
     7
100
AcDbLine
 10
7330.103737
 20
395.301365
 30
0.0
 11
7331.144557
 21
395.301365
 31
0.0
  0
LINE
  5
268
100
AcDbEntity
  8
ﾚｲﾔｰ1
370
    18
  6
Continuous
 62
     7
100
AcDbLine
 10
7371.401411
 20
405.301365
 30
0.0
 11
7371.401411
 21
391.301365
 31
0.0
  0
LINE
  5
269
100
AcDbEntity
  8
ﾚｲﾔｰ1
370
    18
  6
Continuous
 62
     7
100
AcDbLine
 10
7371.044557
 20
391.301365
 30
0.0
 11
7371.044557
 21
405.301365
 31
0.0
  0
LINE
  5
26A
100
AcDbEntity
  8
ﾚｲﾔｰ1
370
    18
  6
Continuous
 62
     7
100
AcDbLine
 10
7336.444557
 20
395.426365
 30
0.0
 11
7332.465149
 21
395.426365
 31
0.0
  0
LINE
  5
26B
100
AcDbEntity
  8
ﾚｲﾔｰ1
370
    18
  6
Continuous
 62
     7
100
AcDbLine
 10
7332.465149
 20
392.551365
 30
0.0
 11
7336.444557
 21
392.551365
 31
0.0
  0
LINE
  5
26C
100
AcDbEntity
  8
ﾚｲﾔｰ1
370
    18
  6
Continuous
 62
     7
100
AcDbLine
 10
7368.444557
 20
581.750255
 30
0.0
 11
7368.444557
 21
627.750255
 31
0.0
  0
LINE
  5
26D
100
AcDbEntity
  8
ﾚｲﾔｰ1
370
    18
  6
Continuous
 62
     7
100
AcDbLine
 10
6872.444556
 20
831.801365
 30
0.0
 11
6898.944557
 21
831.801365
 31
0.0
  0
ARC
  5
26E
100
AcDbEntity
  8
ﾚｲﾔｰ1
370
    18
  6
Continuous
 62
     7
100
AcDbCircle
 10
6872.444557
 20
827.801365
 30
0.0
 40
4.0
100
AcDbArc
 50
90.0
 51
180.0
  0
LINE
  5
26F
100
AcDbEntity
  8
ﾚｲﾔｰ1
370
    18
  6
Continuous
 62
     7
100
AcDbLine
 10
6868.444557
 20
781.801365
 30
0.0
 11
6868.444557
 21
827.801365
 31
0.0
  0
DIMENSION
  5
27C
100
AcDbEntity
  8
寸法線
370
     5
  6
Continuous
 62
     5
100
AcDbDimension
  2
*D6
 10
6607.889644
 20
896.683933
 30
0.0
 11
6642.052091
 21
896.683933
 31
0.0
 71
     5
 72
     1
 41
1.0
 42
0.0
  3
DS1
100
AcDbAlignedDimension
 13
6676.214539
 23
870.232007
 33
0.0
 14
6607.889644
 24
870.232007
 34
0.0
 50
180.0
100
AcDbRotatedDimension
  0
LINE
  5
27D
100
AcDbEntity
  8
ﾚｲﾔｰ1
370
    18
  6
Continuous
 62
     7
100
AcDbLine
 10
6652.05424
 20
846.801365
 30
0.0
 11
6652.05424
 21
849.001365
 31
0.0
  0
ELLIPSE
  5
27E
100
AcDbEntity
  8
ﾚｲﾔｰ1
370
    18
  6
Continuous
 62
     7
100
AcDbEllipse
 10
6653.05424
 20
849.001365
 30
0.0
 11
-1.0
 21
-0.0000000000000251
 31
0.0
210
0.0
220
0.0
230
1.0
 40
1.0
 41
-1.5707963267948966
 42
0.0
  0
LINE
  5
27F
100
AcDbEntity
  8
ﾚｲﾔｰ1
370
    18
  6
Continuous
 62
     7
100
AcDbLine
 10
6672.05424
 20
846.801365
 30
0.0
 11
6652.05424
 21
846.801365
 31
0.0
  0
LINE
  5
280
100
AcDbEntity
  8
ﾚｲﾔｰ1
370
    18
  6
Continuous
 62
     7
100
AcDbLine
 10
7336.444557
 20
392.051365
 30
0.0
 11
7337.444557
 21
392.051365
 31
0.0
  0
LINE
  5
281
100
AcDbEntity
  8
ﾚｲﾔｰ1
370
    18
  6
Continuous
 62
     7
100
AcDbLine
 10
7336.444557
 20
404.551365
 30
0.0
 11
7337.444557
 21
404.551365
 31
0.0
  0
LINE
  5
282
100
AcDbEntity
  8
ﾚｲﾔｰ1
370
    18
  6
Continuous
 62
     7
100
AcDbLine
 10
7369.444557
 20
408.301363
 30
0.0
 11
7369.444557
 21
388.297677
 31
0.0
  0
LINE
  5
283
100
AcDbEntity
  8
ﾚｲﾔｰ1
370
    18
  6
Continuous
 62
     7
100
AcDbLine
 10
7337.444557
 20
390.301365
 30
0.0
 11
7338.444557
 21
390.301365
 31
0.0
  0
LINE
  5
284
100
AcDbEntity
  8
ﾚｲﾔｰ1
370
    18
  6
Continuous
 62
     7
100
AcDbLine
 10
7368.444557
 20
390.301365
 30
0.0
 11
7369.444557
 21
390.301365
 31
0.0
  0
LINE
  5
285
100
AcDbEntity
  8
ﾚｲﾔｰ1
370
    18
  6
Continuous
 62
     7
100
AcDbLine
 10
7331.644557
 20
403.051365
 30
0.0
 11
7331.974402
 21
403.051365
 31
0.0
  0
LINE
  5
286
100
AcDbEntity
  8
ﾚｲﾔｰ1
370
    18
  6
Continuous
 62
     7
100
AcDbLine
 10
7331.144557
 20
394.051365
 30
0.0
 11
7331.144557
 21
402.551365
 31
0.0
  0
LINE
  5
287
100
AcDbEntity
  8
ﾚｲﾔｰ1
370
    18
  6
Continuous
 62
     7
100
AcDbLine
 10
7368.444557
 20
406.301365
 30
0.0
 11
7369.444557
 21
406.301365
 31
0.0
  0
LINE
  5
288
100
AcDbEntity
  8
ﾚｲﾔｰ1
370
    18
  6
Continuous
 62
     7
100
AcDbLine
 10
7371.401411
 20
391.301365
 30
0.0
 11
7371.044557
 21
391.301365
 31
0.0
  0
LINE
  5
289
100
AcDbEntity
  8
ﾚｲﾔｰ1
370
    18
  6
Continuous
 62
     7
100
AcDbLine
 10
7369.444557
 20
406.301365
 30
0.0
 11
7369.444557
 21
390.301365
 31
0.0
  0
ARC
  5
28A
100
AcDbEntity
  8
ﾚｲﾔｰ1
370
    18
  6
Continuous
 62
     7
100
AcDbCircle
 10
7331.644557
 20
394.051365
 30
0.0
 40
0.5
210
0.0
220
0.0
230
1.0
100
AcDbArc
 50
180.0
 51
-90.0
  0
ARC
  5
28B
100
AcDbEntity
  8
ﾚｲﾔｰ1
370
    18
  6
Continuous
 62
     7
100
AcDbCircle
 10
7331.644557
 20
402.551365
 30
0.0
 40
0.5
100
AcDbArc
 50
90.0
 51
180.0
  0
ARC
  5
28C
100
AcDbEntity
  8
ﾚｲﾔｰ1
370
    18
  6
Continuous
 62
     7
100
AcDbCircle
 10
7340.641236
 20
398.301365
 30
0.0
 40
8.666834
100
AcDbArc
 50
160.626529
 51
-160.626529
  0
ARC
  5
28D
100
AcDbEntity
  8
ﾚｲﾔｰ1
370
    18
  6
Continuous
 62
     7
100
AcDbCircle
 10
7334.325141
 20
402.613865
 30
0.0
 40
2.350739
100
AcDbArc
 50
180.0
 51
-142.301245
  0
LINE
  5
28E
100
AcDbEntity
  8
ﾚｲﾔｰ1
370
    18
  6
Continuous
 62
     7
100
AcDbLine
 10
7375.944557
 20
405.391078
 30
0.0
 11
7375.944557
 21
391.211652
 31
0.0
  0
LINE
  5
28F
100
AcDbEntity
  8
ﾚｲﾔｰ1
370
    18
  6
Continuous
 62
     7
100
AcDbLine
 10
7336.444557
 20
401.176365
 30
0.0
 11
7332.465149
 21
401.176365
 31
0.0
  0
LINE
  5
290
100
AcDbEntity
  8
ﾚｲﾔｰ1
370
    18
  6
Continuous
 62
     7
100
AcDbLine
 10
7336.444557
 20
404.051365
 30
0.0
 11
7336.444557
 21
392.551365
 31
0.0
  0
LINE
  5
291
100
AcDbEntity
  8
ﾚｲﾔｰ1
370
    18
  6
Continuous
 62
     7
100
AcDbLine
 10
7331.974402
 20
393.401365
 30
0.0
 11
7331.974402
 21
403.201365
 31
0.0
  0
LINE
  5
292
100
AcDbEntity
  8
ﾚｲﾔｰ1
370
    18
  6
Continuous
 62
     7
100
AcDbLine
 10
6674.35424
 20
629.801365
 30
0.0
 11
6674.792847
 21
629.801365
 31
0.0
  0
LINE
  5
293
100
AcDbEntity
  8
ﾚｲﾔｰ1
370
    18
  6
Continuous
 62
     7
100
AcDbLine
 10
6674.35424
 20
619.801365
 30
0.0
 11
6674.35424
 21
629.801365
 31
0.0
  0
LINE
  5
294
100
AcDbEntity
  8
ﾚｲﾔｰ1
370
    18
  6
Continuous
 62
     7
100
AcDbLine
 10
6624.05424
 20
604.801365
 30
0.0
 11
6652.05424
 21
604.801365
 31
0.0
  0
LINE
  5
295
100
AcDbEntity
  8
ﾚｲﾔｰ1
370
    18
  6
Continuous
 62
     7
100
AcDbLine
 10
6674.35424
 20
633.101368
 30
0.0
 11
6674.35424
 21
604.801365
 31
0.0
  0
LINE
  5
296
100
AcDbEntity
  8
ﾚｲﾔｰ1
370
    18
  6
Continuous
 62
     7
100
AcDbLine
 10
6869.444557
 20
850.001365
 30
0.0
 11
6897.444557
 21
850.001365
 31
0.0
  0
ELLIPSE
  5
297
100
AcDbEntity
  8
ﾚｲﾔｰ1
370
    18
  6
Continuous
 62
     7
100
AcDbEllipse
 10
6869.444557
 20
849.001365
 30
0.0
 11
-0.9999999999999997
 21
-0.0000000000005076
 31
0.0
210
0.0
220
0.0
230
1.0
 40
1.0
 41
-1.5707963267948966
 42
0.0
  0
LINE
  5
298
100
AcDbEntity
  8
ﾚｲﾔｰ1
370
    18
  6
Continuous
 62
     7
100
AcDbLine
 10
6868.444557
 20
846.801365
 30
0.0
 11
6868.444557
 21
849.001365
 31
0.0
  0
LINE
  5
299
100
AcDbEntity
  8
ﾚｲﾔｰ1
370
    18
  6
Continuous
 62
     7
100
AcDbLine
 10
6898.444557
 20
846.801365
 30
0.0
 11
6868.444557
 21
846.801365
 31
0.0
  0
LINE
  5
29A
100
AcDbEntity
  8
ﾚｲﾔｰ1
370
    18
  6
Continuous
 62
     7
100
AcDbLine
 10
6898.444557
 20
846.801365
 30
0.0
 11
6898.444557
 21
849.001365
 31
0.0
  0
ELLIPSE
  5
29B
100
AcDbEntity
  8
ﾚｲﾔｰ1
370
    18
  6
Continuous
 62
     7
100
AcDbEllipse
 10
6897.444557
 20
849.001365
 30
0.0
 11
0.9999999999999997
 21
0.0000000000005076
 31
0.0
210
0.0
220
0.0
230
-1.0
 40
1.0
 41
-1.5707963267948966
 42
0.0
  0
LINE
  5
29C
100
AcDbEntity
  8
ﾚｲﾔｰ1
370
    18
  6
Continuous
 62
     7
100
AcDbLine
 10
7002.444557
 20
835.101365
 30
0.0
 11
6898.944557
 21
835.101365
 31
0.0
  0
LINE
  5
29D
100
AcDbEntity
  8
ﾚｲﾔｰ1
370
    18
  6
Continuous
 62
     7
100
AcDbLine
 10
7002.444557
 20
774.501365
 30
0.0
 11
6898.944557
 21
774.501365
 31
0.0
  0
CIRCLE
  5
29E
100
AcDbEntity
  8
ﾚｲﾔｰ1
370
    18
  6
Continuous
 62
     7
100
AcDbCircle
 10
6883.444557
 20
824.801365
 30
0.0
 40
1.5
  0
LINE
  5
29F
100
AcDbEntity
  8
レイヤー 1
370
    18
  6
Continuous
 62
     7
100
AcDbLine
 10
6898.444557
 20
831.801365
 30
0.0
 11
6898.444557
 21
846.801365
 31
0.0
  0
ARC
  5
2A0
100
AcDbEntity
  8
ﾚｲﾔｰ1
370
    18
  6
Continuous
 62
     7
100
AcDbCircle
 10
6872.444557
 20
781.801365
 30
0.0
 40
4.0
210
0.0
220
0.0
230
1.0
100
AcDbArc
 50
180.0
 51
-90.0
  0
LINE
  5
2A1
100
AcDbEntity
  8
ﾚｲﾔｰ1
370
    18
  6
Continuous
 62
     7
100
AcDbLine
 10
6898.944557
 20
777.801365
 30
0.0
 11
6872.444557
 21
777.801365
 31
0.0
  0
LINE
  5
2A2
100
AcDbEntity
  8
ﾚｲﾔｰ1
370
    18
  6
Continuous
 62
     7
100
AcDbLine
 10
6898.944557
 20
774.501365
 30
0.0
 11
6898.944557
 21
777.801365
 31
0.0
  0
ELLIPSE
  5
2A3
100
AcDbEntity
  8
ﾚｲﾔｰ1
370
    18
  6
Continuous
 62
     7
100
AcDbEllipse
 10
6671.05424
 20
849.001365
 30
0.0
 11
1.0
 21
0.0000000000000251
 31
0.0
210
0.0
220
0.0
230
-1.0
 40
1.0
 41
-1.5707963267948966
 42
0.0
  0
LINE
  5
2A4
100
AcDbEntity
  8
ﾚｲﾔｰ1
370
    18
  6
Continuous
 62
     7
100
AcDbLine
 10
6671.05424
 20
850.001365
 30
0.0
 11
6653.05424
 21
850.001365
 31
0.0
  0
LINE
  5
2A5
100
AcDbEntity
  8
ﾚｲﾔｰ1
370
    18
  6
Continuous
 62
     7
100
AcDbLine
 10
6898.944557
 20
835.101365
 30
0.0
 11
6898.944557
 21
831.801365
 31
0.0
  0
INSERT
  5
2C3
100
AcDbEntity
  8
ﾚｲﾔｰ1
370
    18
  6
Continuous
 62
     7
100
AcDbBlockReference
  2
C4
 10
0.0
 20
0.0
 30
0.0
  0
CIRCLE
  5
2C4
100
AcDbEntity
  8
ﾚｲﾔｰ1
370
    18
  6
Continuous
 62
     7
100
AcDbCircle
 10
6883.444557
 20
824.801365
 30
0.0
 40
5.0
  0
CIRCLE
  5
2C5
100
AcDbEntity
  8
ﾚｲﾔｰ1
370
    18
  6
Continuous
 62
     7
100
AcDbCircle
 10
6883.444557
 20
784.801365
 30
0.0
 40
5.0
  0
CIRCLE
  5
2C6
100
AcDbEntity
  8
ﾚｲﾔｰ1
370
    18
  6
Continuous
 62
     7
100
AcDbCircle
 10
6883.444557
 20
784.801365
 30
0.0
 40
1.5
  0
LINE
  5
2C7
100
AcDbEntity
  8
ﾚｲﾔｰ1
370
    18
  6
Continuous
 62
     7
100
AcDbLine
 10
6672.05424
 20
846.801365
 30
0.0
 11
6672.05424
 21
849.001365
 31
0.0
  0
LINE
  5
2C8
100
AcDbEntity
  8
ﾚｲﾔｰ1
370
    18
  6
Continuous
 62
     7
100
AcDbLine
 10
6672.35424
 20
635.101365
 30
0.0
 11
6672.05424
 21
635.101365
 31
0.0
  0
ELLIPSE
  5
2C9
100
AcDbEntity
  8
ﾚｲﾔｰ1
370
    18
  6
Continuous
 62
     7
100
AcDbEllipse
 10
6666.711351
 20
624.801365
 30
0.0
 11
5.0000000000046967
 21
-8.0814962834466648
 31
0.0
210
0.0
220
0.0
230
-1.0
 40
1.0
 41
-1.5707963267948966
 42
-0.462687928255227
  0
LINE
  5
2CA
100
AcDbEntity
  8
ﾚｲﾔｰ1
370
    18
  6
Continuous
 62
     7
100
AcDbLine
 10
6674.35424
 20
619.801365
 30
0.0
 11
6674.792847
 21
619.801365
 31
0.0
  0
ARC
  5
2CB
100
AcDbEntity
  8
ﾚｲﾔｰ1
370
    18
  6
Continuous
 62
     7
100
AcDbCircle
 10
6872.444557
 20
627.750255
 30
0.0
 40
4.0
100
AcDbArc
 50
90.0
 51
180.0
  0
LINE
  5
2CC
100
AcDbEntity
  8
ﾚｲﾔｰ1
370
    18
  6
Continuous
 62
     7
100
AcDbLine
 10
6652.05424
 20
614.801365
 30
0.0
 11
6649.75424
 21
614.801365
 31
0.0
  0
LINE
  5
2CD
100
AcDbEntity
  8
ﾚｲﾔｰ1
370
    18
  6
Continuous
 62
     7
100
AcDbLine
 10
6649.75424
 20
613.011701
 30
0.0
 11
6649.315632
 21
613.011701
 31
0.0
  0
LINE
  5
2CE
100
AcDbEntity
  8
レイヤー 1
370
    18
  6
Continuous
 62
     7
100
AcDbLine
 10
6649.75424
 20
604.801365
 30
0.0
 11
6649.75424
 21
614.801365
 31
0.0
  0
LINE
  5
2CF
100
AcDbEntity
  8
ﾚｲﾔｰ1
370
    18
  6
Continuous
 62
     7
100
AcDbLine
 10
6672.05424
 20
631.801365
 30
0.0
 11
6674.35424
 21
631.801365
 31
0.0
  0
LINE
  5
2D0
100
AcDbEntity
  8
ﾚｲﾔｰ1
370
    18
  6
Continuous
 62
     7
100
AcDbLine
 10
6622.108811
 20
615.479288
 30
0.0
 11
6613.049943
 21
615.479288
 31
0.0
  0
LINE
  5
2D1
100
AcDbEntity
  8
ﾚｲﾔｰ1
370
    18
  6
Continuous
 62
     7
100
AcDbLine
 10
6674.35424
 20
579.801365
 30
0.0
 11
6674.35424
 21
589.801365
 31
0.0
  0
CIRCLE
  5
2D2
100
AcDbEntity
  8
ﾚｲﾔｰ1
370
    18
  6
Continuous
 62
     7
100
AcDbCircle
 10
6622.05424
 20
589.801365
 30
0.0
 40
6.999285
210
0.0
220
0.0
230
0.9999999999999999
  0
LINE
  5
2D3
100
AcDbEntity
  8
レイヤー 1
370
    18
  6
Continuous
 62
     7
100
AcDbLine
 10
6614.05424
 20
584.801365
 30
0.0
 11
6614.05424
 21
594.801365
 31
0.0
  0
CIRCLE
  5
2D4
100
AcDbEntity
  8
ﾚｲﾔｰ1
370
    18
  6
Continuous
 62
     7
100
AcDbCircle
 10
6883.444557
 20
584.750255
 30
0.0
 40
5.0
  0
LINE
  5
2D5
100
AcDbEntity
  8
ﾚｲﾔｰ1
370
    18
  6
Continuous
 62
     7
100
AcDbLine
 10
6622.600645
 20
586.641688
 30
0.0
 11
6622.61437
 21
587.441286
 31
0.0
  0
ELLIPSE
  5
2D6
100
AcDbEntity
  8
ﾚｲﾔｰ1
370
    18
  6
Continuous
 62
     7
100
AcDbEllipse
 10
6613.049943
 20
614.479288
 30
0.0
 11
-1.0000000000000011
 21
0.0000000000000974
 31
0.0
210
0.0
220
0.0
230
1.0
 40
1.0
 41
-1.5707963267948966
 42
0.0
  0
LINE
  5
2D7
100
AcDbEntity
  8
ﾚｲﾔｰ1
370
    18
  6
Continuous
 62
     7
100
AcDbLine
 10
6612.049943
 20
612.279288
 30
0.0
 11
6612.049943
 21
614.479288
 31
0.0
  0
LINE
  5
2D8
100
AcDbEntity
  8
レイヤー 1
370
    18
  6
Continuous
 62
     7
100
AcDbLine
 10
6632.166403
 20
604.801365
 30
0.0
 11
6632.167679
 21
612.279288
 31
0.0
  0
LINE
  5
2D9
100
AcDbEntity
  8
ﾚｲﾔｰ1
370
    18
  6
Continuous
 62
     7
100
AcDbLine
 10
6898.944557
 20
635.050255
 30
0.0
 11
6898.944557
 21
631.750255
 31
0.0
  0
LINE
  5
2DA
100
AcDbEntity
  8
ﾚｲﾔｰ1
370
    18
  6
Continuous
 62
     7
100
AcDbLine
 10
6872.444556
 20
631.750255
 30
0.0
 11
6898.944557
 21
631.750255
 31
0.0
  0
LINE
  5
2DB
100
AcDbEntity
  8
ﾚｲﾔｰ1
370
    18
  6
Continuous
 62
     7
100
AcDbLine
 10
6622.108811
 20
612.279288
 30
0.0
 11
6632.167679
 21
612.279288
 31
0.0
  0
LINE
  5
2DC
100
AcDbEntity
  8
ﾚｲﾔｰ1
370
    18
  6
Continuous
 62
     7
100
AcDbLine
 10
6622.108811
 20
612.279288
 30
0.0
 11
6612.049943
 21
612.279288
 31
0.0
  0
ELLIPSE
  5
2DD
100
AcDbEntity
  8
ﾚｲﾔｰ1
370
    18
  6
Continuous
 62
     7
100
AcDbEllipse
 10
6631.167679
 20
614.479288
 30
0.0
 11
1.0000000000000011
 21
0.0000000000000974
 31
0.0
210
0.0
220
0.0
230
-1.0
 40
1.0
 41
-1.5707963267948966
 42
0.0
  0
LINE
  5
2DE
100
AcDbEntity
  8
ﾚｲﾔｰ1
370
    18
  6
Continuous
 62
     7
100
AcDbLine
 10
6632.167679
 20
612.279288
 30
0.0
 11
6632.167679
 21
614.479288
 31
0.0
  0
CIRCLE
  5
2DF
100
AcDbEntity
  8
ﾚｲﾔｰ1
370
    18
  6
Continuous
 62
     7
100
AcDbCircle
 10
6883.444557
 20
624.750255
 30
0.0
 40
5.0
  0
CIRCLE
  5
2E0
100
AcDbEntity
  8
ﾚｲﾔｰ1
370
    18
  6
Continuous
 62
     7
100
AcDbCircle
 10
6883.444557
 20
624.750255
 30
0.0
 40
1.5
  0
LINE
  5
2E1
100
AcDbEntity
  8
ﾚｲﾔｰ1
370
    18
  6
Continuous
 62
     7
100
AcDbLine
 10
6658.900635
 20
398.903143
 30
0.0
 11
6658.900635
 21
397.703062
 31
0.0
  0
ARC
  5
2E2
100
AcDbEntity
  8
ﾚｲﾔｰ1
370
    18
  6
Continuous
 62
     7
100
AcDbCircle
 10
6624.05424
 20
584.801365
 30
0.0
 40
10.0
100
AcDbArc
 50
-180.0
 51
-90.0
  0
LINE
  5
2E3
100
AcDbEntity
  8
ﾚｲﾔｰ1
370
    18
  6
Continuous
 62
     7
100
AcDbLine
 10
6674.35424
 20
579.801365
 30
0.0
 11
6674.792847
 21
579.801365
 31
0.0
  0
ARC
  5
2E4
100
AcDbEntity
  8
ﾚｲﾔｰ1
370
    18
  6
Continuous
 62
     7
100
AcDbCircle
 10
6662.050469
 20
398.306474
 30
0.0
 40
10.0
210
0.0
220
0.0
230
1.0
100
AcDbArc
 50
0.034036
 51
-179.965963
  0
LINE
  5
2E5
100
AcDbEntity
  8
ﾚｲﾔｰ1
370
    18
  6
Continuous
 62
     7
100
AcDbLine
 10
6609.749943
 20
520.552466
 30
0.0
 11
6609.749943
 21
492.252463
 31
0.0
  0
LINE
  5
2E6
100
AcDbEntity
  8
ﾚｲﾔｰ1
370
    18
  6
Continuous
 62
     7
100
AcDbLine
 10
6612.049943
 20
519.252463
 30
0.0
 11
6609.749943
 21
519.252463
 31
0.0
  0
ELLIPSE
  5
2E7
100
AcDbEntity
  8
ﾚｲﾔｰ1
370
    18
  6
Continuous
 62
     7
100
AcDbEllipse
 10
6611.749943
 20
520.552463
 30
0.0
 11
-2.0000000000000022
 21
-0.0000000000012971
 31
0.0
210
0.0
220
0.0
230
1.0
 40
1.0
 41
-1.5707963267948966
 42
0.0
  0
ELLIPSE
  5
2E8
100
AcDbEntity
  8
ﾚｲﾔｰ1
370
    18
  6
Continuous
 62
     7
100
AcDbEllipse
 10
6659.700351
 20
400.652708
 30
0.0
 11
0.0000000000023161
 21
-1.750077393552655
 31
0.0
210
0.0
220
0.0
230
-1.0
 40
1.0
 41
-1.5707963267948966
 42
0.0000000000018199
  0
ELLIPSE
  5
2E9
100
AcDbEntity
  8
ﾚｲﾔｰ1
370
    18
  6
Continuous
 62
     7
100
AcDbEllipse
 10
6664.400587
 20
400.652708
 30
0.0
 11
-0.0000000000291038
 21
-1.7495649227475951
 31
0.0
210
0.0
220
0.0
230
-0.9999999999999999
 40
1.0
 41
0.0
 42
1.5707963267751435
  0
LINE
  5
2EA
100
AcDbEntity
  8
ﾚｲﾔｰ1
370
    18
  6
Continuous
 62
     7
100
AcDbLine
 10
6661.450429
 20
395.953497
 30
0.0
 11
6661.450429
 21
395.152756
 31
0.0
  0
LINE
  5
2EB
100
AcDbEntity
  8
ﾚｲﾔｰ1
370
    18
  6
Continuous
 62
     7
100
AcDbLine
 10
6662.65051
 20
395.152756
 30
0.0
 11
6662.65051
 21
395.953497
 31
0.0
  0
LINE
  5
2EC
100
AcDbEntity
  8
ﾚｲﾔｰ1
370
    18
  6
Continuous
 62
     7
100
AcDbLine
 10
6661.450429
 20
395.152756
 30
0.0
 11
6662.65051
 21
395.152756
 31
0.0
  0
LINE
  5
2ED
100
AcDbEntity
  8
ﾚｲﾔｰ1
370
    18
  6
Continuous
 62
     7
100
AcDbLine
 10
6868.444557
 20
582.801365
 30
0.0
 11
6868.444557
 21
596.801365
 31
0.0
  0
LINE
  5
2EE
100
AcDbEntity
  8
ﾚｲﾔｰ1
370
    18
  6
Continuous
 62
     7
100
AcDbLine
 10
6868.087702
 20
596.801365
 30
0.0
 11
6868.087702
 21
582.801365
 31
0.0
  0
ARC
  5
2EF
100
AcDbEntity
  8
ﾚｲﾔｰ1
370
    18
  6
Continuous
 62
     7
100
AcDbCircle
 10
6873.744557
 20
589.801365
 30
0.0
 40
9.0
210
0.0
220
0.0
230
1.0
100
AcDbArc
 50
128.942441
 51
-128.942441
  0
LINE
  5
2F0
100
AcDbEntity
  8
ﾚｲﾔｰ1
370
    18
  6
Continuous
 62
     7
100
AcDbLine
 10
6621.414466
 20
587.461883
 30
0.0
 11
6621.400741
 21
586.662284
 31
0.0
  0
ELLIPSE
  5
2F1
100
AcDbEntity
  8
ﾚｲﾔｰ1
370
    18
  6
Continuous
 62
     7
100
AcDbEllipse
 10
6666.711351
 20
584.801365
 30
0.0
 11
5.0000000000046967
 21
-8.0814962834466648
 31
0.0
210
0.0
220
0.0
230
-1.0
 40
1.0
 41
-1.5707963267948966
 42
-0.4626879282506327
  0
LINE
  5
2F2
100
AcDbEntity
  8
ﾚｲﾔｰ1
370
    18
  6
Continuous
 62
     7
100
AcDbLine
 10
6621.400741
 20
586.662284
 30
0.0
 11
6622.600645
 21
586.641688
 31
0.0
  0
INSERT
  5
2FA
100
AcDbEntity
  8
ﾚｲﾔｰ1
370
    18
  6
Continuous
 62
     7
100
AcDbBlockReference
  2
C7
 10
0.0
 20
0.0
 30
0.0
  0
LINE
  5
2FB
100
AcDbEntity
  8
ﾚｲﾔｰ1
370
    18
  6
Continuous
 62
     7
100
AcDbLine
 10
6611.749943
 20
461.952463
 30
0.0
 11
6612.049943
 21
461.952463
 31
0.0
  0
ELLIPSE
  5
2FC
100
AcDbEntity
  8
ﾚｲﾔｰ1
370
    18
  6
Continuous
 62
     7
100
AcDbEllipse
 10
6611.749943
 20
463.952463
 30
0.0
 11
-2.0000000000000022
 21
-0.0000000000012971
 31
0.0
210
0.0
220
0.0
230
-1.0
 40
1.0
 41
-1.5707963267948966
 42
0.0
  0
LINE
  5
2FD
100
AcDbEntity
  8
ﾚｲﾔｰ1
370
    18
  6
Continuous
 62
     7
100
AcDbLine
 10
6612.049943
 20
465.252463
 30
0.0
 11
6609.749943
 21
465.252463
 31
0.0
  0
INSERT
  5
305
100
AcDbEntity
  8
ﾚｲﾔｰ1
370
    18
  6
Continuous
 62
     7
100
AcDbBlockReference
  2
C8
 10
0.0
 20
0.0
 30
0.0
  0
LINE
  5
306
100
AcDbEntity
  8
ﾚｲﾔｰ1
370
    18
  6
Continuous
 62
     7
100
AcDbLine
 10
6622.108811
 20
615.479288
 30
0.0
 11
6631.16768
 21
615.479288
 31
0.0
  0
ELLIPSE
  5
307
100
AcDbEntity
  8
ﾚｲﾔｰ1
370
    18
  6
Continuous
 62
     7
100
AcDbEllipse
 10
6672.35424
 20
633.101365
 30
0.0
 11
2.0000000000000022
 21
0.0000000000000994
 31
0.0
210
0.0
220
0.0
230
-1.0
 40
1.0
 41
-1.5707963267948966
 42
0.0
  0
LINE
  5
308
100
AcDbEntity
  8
ﾚｲﾔｰ1
370
    18
  6
Continuous
 62
     7
100
AcDbLine
 10
6649.75424
 20
567.011701
 30
0.0
 11
6649.315632
 21
567.011701
 31
0.0
  0
LINE
  5
309
100
AcDbEntity
  8
ﾚｲﾔｰ1
370
    18
  6
Continuous
 62
     7
100
AcDbLine
 10
6649.75424
 20
564.801365
 30
0.0
 11
6649.75424
 21
574.801365
 31
0.0
  0
LINE
  5
30A
100
AcDbEntity
  8
ﾚｲﾔｰ1
370
    18
  6
Continuous
 62
     7
100
AcDbLine
 10
6672.35424
 20
574.501365
 30
0.0
 11
6672.05424
 21
574.501365
 31
0.0
  0
ELLIPSE
  5
30B
100
AcDbEntity
  8
ﾚｲﾔｰ1
370
    18
  6
Continuous
 62
     7
100
AcDbEllipse
 10
6672.35424
 20
576.501365
 30
0.0
 11
2.0000000000000022
 21
0.0000000000000994
 31
0.0
210
0.0
220
0.0
230
1.0
 40
1.0
 41
-1.5707963267948966
 42
0.0
  0
LINE
  5
30C
100
AcDbEntity
  8
ﾚｲﾔｰ1
370
    18
  6
Continuous
 62
     7
100
AcDbLine
 10
6621.508859
 20
592.961024
 30
0.0
 11
6621.495134
 21
592.161426
 31
0.0
  0
ELLIPSE
  5
30D
100
AcDbEntity
  8
ﾚｲﾔｰ1
370
    18
  6
Continuous
 62
     7
100
AcDbEllipse
 10
6624.444346
 20
592.110803
 30
0.0
 11
-1.7498196287483088
 21
0.0300358164727602
 31
0.0
210
0.0
220
0.0
230
-0.9999999999999999
 40
1.0
 41
-1.5707963267948966
 42
-0.0000000000151723
  0
LINE
  5
30E
100
AcDbEntity
  8
ﾚｲﾔｰ1
370
    18
  6
Continuous
 62
     7
100
AcDbLine
 10
6622.708763
 20
592.940428
 30
0.0
 11
6621.508859
 21
592.961024
 31
0.0
  0
ELLIPSE
  5
30F
100
AcDbEntity
  8
ﾚｲﾔｰ1
370
    18
  6
Continuous
 62
     7
100
AcDbEllipse
 10
6619.665159
 20
587.49191
 30
0.0
 11
1.7498196287483088
 21
-0.0300358164727602
 31
0.0
210
0.0
220
0.0
230
-0.9999999999999999
 40
1.0
 41
-1.5707963267948966
 42
0.0000000000040961
  0
LINE
  5
310
100
AcDbEntity
  8
ﾚｲﾔｰ1
370
    18
  6
Continuous
 62
     7
100
AcDbLine
 10
6624.393713
 20
589.161079
 30
0.0
 11
6625.194336
 21
589.147336
 31
0.0
  0
LINE
  5
311
100
AcDbEntity
  8
ﾚｲﾔｰ1
370
    18
  6
Continuous
 62
     7
100
AcDbLine
 10
6661.450429
 20
401.453449
 30
0.0
 11
6661.450429
 21
400.652708
 31
0.0
  0
LINE
  5
312
100
AcDbEntity
  8
ﾚｲﾔｰ1
370
    18
  6
Continuous
 62
     7
100
AcDbLine
 10
6662.65051
 20
401.453449
 30
0.0
 11
6661.450429
 21
401.453449
 31
0.0
  0
LINE
  5
313
100
AcDbEntity
  8
ﾚｲﾔｰ1
370
    18
  6
Continuous
 62
     7
100
AcDbLine
 10
6662.65051
 20
400.652708
 30
0.0
 11
6662.65051
 21
401.453449
 31
0.0
  0
LINE
  5
314
100
AcDbEntity
  8
ﾚｲﾔｰ1
370
    18
  6
Continuous
 62
     7
100
AcDbLine
 10
6665.200303
 20
398.903143
 30
0.0
 11
6664.400587
 21
398.903143
 31
0.0
  0
ELLIPSE
  5
315
100
AcDbEntity
  8
ﾚｲﾔｰ1
370
    18
  6
Continuous
 62
     7
100
AcDbEllipse
 10
6657.397128
 20
572.011701
 30
0.0
 11
-9.0845119692748995
 21
2.7896638614649873
 31
0.0
210
0.0
220
0.0
230
1.0
 40
1.0
 41
0.0
 42
0.85199287108894
  0
LINE
  5
316
100
AcDbEntity
  8
ﾚｲﾔｰ1
370
    18
  6
Continuous
 62
     7
100
AcDbLine
 10
6624.054238
 20
574.801365
 30
0.0
 11
6652.05424
 21
574.801365
 31
0.0
  0
LINE
  5
317
100
AcDbEntity
  8
ﾚｲﾔｰ1
370
    18
  6
Continuous
 62
     7
100
AcDbLine
 10
6664.400587
 20
397.703062
 30
0.0
 11
6665.200303
 21
397.703062
 31
0.0
  0
LINE
  5
318
100
AcDbEntity
  8
ﾚｲﾔｰ1
370
    18
  6
Continuous
 62
     7
100
AcDbLine
 10
6658.900635
 20
397.703062
 30
0.0
 11
6659.700351
 21
397.703062
 31
0.0
  0
LINE
  5
319
100
AcDbEntity
  8
ﾚｲﾔｰ1
370
    18
  6
Continuous
 62
     7
100
AcDbLine
 10
6659.700351
 20
398.903143
 30
0.0
 11
6658.900635
 21
398.903143
 31
0.0
  0
LINE
  5
31A
100
AcDbEntity
  8
ﾚｲﾔｰ1
370
    18
  6
Continuous
 62
     7
100
AcDbLine
 10
6672.05424
 20
577.801365
 30
0.0
 11
6674.35424
 21
577.801365
 31
0.0
  0
ELLIPSE
  5
31B
100
AcDbEntity
  8
ﾚｲﾔｰ1
370
    18
  6
Continuous
 62
     7
100
AcDbEllipse
 10
6664.400587
 20
395.953497
 30
0.0
 11
-1.7500773935535108
 21
-0.0000000000095497
 31
0.0
210
0.0
220
0.0
230
-1.0
 40
1.0
 41
0.0
 42
1.5707963268046421
  0
ELLIPSE
  5
31C
100
AcDbEntity
  8
ﾚｲﾔｰ1
370
    18
  6
Continuous
 62
     7
100
AcDbEllipse
 10
6659.700351
 20
395.953497
 30
0.0
 11
1.7495649227320311
 21
0.0000000000023138
 31
0.0
210
0.0
220
0.0
230
-1.0
 40
1.0
 41
-1.5707963267948966
 42
0.0000000000184537
  0
ELLIPSE
  5
31D
100
AcDbEntity
  8
ﾚｲﾔｰ1
370
    18
  6
Continuous
 62
     7
100
AcDbEllipse
 10
6662.050469
 20
398.30259
 30
0.0
 11
-6.9992846325691982
 21
-0.0000000000093405
 31
0.0
210
0.0
220
0.0
230
-1.0
 40
1.0
 41
-1.5707963267948966
 42
4.7123889803846897
  0
LINE
  5
31E
100
AcDbEntity
  8
ﾚｲﾔｰ1
370
    18
  6
Continuous
 62
     7
100
AcDbLine
 10
6611.749943
 20
522.552463
 30
0.0
 11
6612.049943
 21
522.552463
 31
0.0
  0
LINE
  5
31F
100
AcDbEntity
  8
ﾚｲﾔｰ1
370
    18
  6
Continuous
 62
     7
100
AcDbLine
 10
6609.749943
 20
463.95246
 30
0.0
 11
6609.749943
 21
492.252463
 31
0.0
  0
LINE
  5
320
100
AcDbEntity
  8
ﾚｲﾔｰ1
370
    18
  6
Continuous
 62
     7
100
AcDbLine
 10
6665.200303
 20
397.703062
 30
0.0
 11
6665.200303
 21
398.903143
 31
0.0
  0
LINE
  5
321
100
AcDbEntity
  8
ﾚｲﾔｰ1
370
    18
  6
Continuous
 62
     7
100
AcDbLine
 10
6899.444557
 20
406.301365
 30
0.0
 11
6898.444557
 21
406.301365
 31
0.0
  0
LINE
  5
322
100
AcDbEntity
  8
ﾚｲﾔｰ1
370
    18
  6
Continuous
 62
     7
100
AcDbLine
 10
6900.444557
 20
404.051365
 30
0.0
 11
6900.444557
 21
392.551365
 31
0.0
  0
LINE
  5
323
100
AcDbEntity
  8
ﾚｲﾔｰ1
370
    18
  6
Continuous
 62
     7
100
AcDbLine
 10
6860.91006
 20
405.391078
 30
0.0
 11
6860.91006
 21
391.211652
 31
0.0
  0
LINE
  5
324
100
AcDbEntity
  8
ﾚｲﾔｰ1
370
    18
  6
Continuous
 62
     7
100
AcDbLine
 10
6865.81006
 20
390.148512
 30
0.0
 11
6860.91006
 21
391.211652
 31
0.0
  0
LINE
  5
325
100
AcDbEntity
  8
ﾚｲﾔｰ1
370
    18
  6
Continuous
 62
     7
100
AcDbLine
 10
7002.444557
 20
635.050255
 30
0.0
 11
6898.944557
 21
635.050255
 31
0.0
  0
CIRCLE
  5
326
100
AcDbEntity
  8
ﾚｲﾔｰ1
370
    18
  6
Continuous
 62
     7
100
AcDbCircle
 10
6883.444557
 20
584.750255
 30
0.0
 40
1.5
  0
ARC
  5
327
100
AcDbEntity
  8
ﾚｲﾔｰ1
370
    18
  6
Continuous
 62
     7
100
AcDbCircle
 10
6872.444557
 20
581.750255
 30
0.0
 40
4.0
210
0.0
220
0.0
230
1.0
100
AcDbArc
 50
180.0
 51
-90.0
  0
LINE
  5
328
100
AcDbEntity
  8
ﾚｲﾔｰ1
370
    18
  6
Continuous
 62
     7
100
AcDbLine
 10
6898.944557
 20
577.750255
 30
0.0
 11
6872.444557
 21
577.750255
 31
0.0
  0
LINE
  5
329
100
AcDbEntity
  8
ﾚｲﾔｰ1
370
    18
  6
Continuous
 62
     7
100
AcDbLine
 10
6618.915168
 20
590.455376
 30
0.0
 11
6618.894571
 21
589.255472
 31
0.0
  0
LINE
  5
32A
100
AcDbEntity
  8
ﾚｲﾔｰ1
370
    18
  6
Continuous
 62
     7
100
AcDbLine
 10
6674.35424
 20
589.801365
 30
0.0
 11
6674.792847
 21
589.801365
 31
0.0
  0
LINE
  5
32B
100
AcDbEntity
  8
ﾚｲﾔｰ1
370
    18
  6
Continuous
 62
     7
100
AcDbLine
 10
6618.894571
 20
589.255472
 30
0.0
 11
6619.695194
 21
589.241729
 31
0.0
  0
ELLIPSE
  5
32C
100
AcDbEntity
  8
ﾚｲﾔｰ1
370
    18
  6
Continuous
 62
     7
100
AcDbEllipse
 10
6624.363677
 20
587.411259
 30
0.0
 11
0.0300270211591511
 21
1.7493072334083146
 31
0.0
210
0.0
220
0.0
230
-0.9999999999999999
 40
1.0
 41
-1.5707963267948966
 42
0.0000000000128417
  0
LINE
  5
32D
100
AcDbEntity
  8
ﾚｲﾔｰ1
370
    18
  6
Continuous
 62
     7
100
AcDbLine
 10
6868.444557
 20
596.801365
 30
0.0
 11
6868.087702
 21
596.801365
 31
0.0
  0
LINE
  5
32E
100
AcDbEntity
  8
ﾚｲﾔｰ1
370
    18
  6
Continuous
 62
     7
100
AcDbLine
 10
6674.35424
 20
576.501362
 30
0.0
 11
6674.35424
 21
604.801365
 31
0.0
  0
ELLIPSE
  5
32F
100
AcDbEntity
  8
ﾚｲﾔｰ1
370
    18
  6
Continuous
 62
     7
100
AcDbEllipse
 10
6624.05424
 20
594.801365
 30
0.0
 11
-0.0000000000098415
 21
10.000000000002471
 31
0.0
210
0.0
220
0.0
230
1.0
 40
1.0
 41
0.0
 42
1.5707963267952603
  0
ELLIPSE
  5
330
100
AcDbEntity
  8
ﾚｲﾔｰ1
370
    18
  6
Continuous
 62
     7
100
AcDbEllipse
 10
6657.397128
 20
608.011701
 30
0.0
 11
-8.0814962834629114
 21
5.0000000000306954
 31
0.0
210
0.0
220
0.0
230
1.0
 40
1.0
 41
0.0
 42
0.8986505184784814
  0
LINE
  5
331
100
AcDbEntity
  8
ﾚｲﾔｰ1
370
    18
  6
Continuous
 62
     7
100
AcDbLine
 10
6868.444557
 20
581.750255
 30
0.0
 11
6868.444557
 21
627.750255
 31
0.0
  0
ELLIPSE
  5
332
100
AcDbEntity
  8
ﾚｲﾔｰ1
370
    18
  6
Continuous
 62
     7
100
AcDbEllipse
 10
6619.745827
 20
592.191453
 30
0.0
 11
-0.0300270211591511
 21
-1.7493072334083146
 31
0.0
210
0.0
220
0.0
230
-1.0
 40
1.0
 41
-1.5707963267948966
 42
-0.0000000000014655
  0
LINE
  5
333
100
AcDbEntity
  8
ﾚｲﾔｰ1
370
    18
  6
Continuous
 62
     7
100
AcDbLine
 10
6898.944557
 20
574.450255
 30
0.0
 11
6898.944557
 21
577.750255
 31
0.0
  0
LINE
  5
334
100
AcDbEntity
  8
ﾚｲﾔｰ1
370
    18
  6
Continuous
 62
     7
100
AcDbLine
 10
6868.087702
 20
582.801365
 30
0.0
 11
6868.444557
 21
582.801365
 31
0.0
  0
LINE
  5
335
100
AcDbEntity
  8
ﾚｲﾔｰ1
370
    18
  6
Continuous
 62
     7
100
AcDbLine
 10
6622.695038
 20
592.14083
 30
0.0
 11
6622.708763
 21
592.940428
 31
0.0
  0
LINE
  5
336
100
AcDbEntity
  8
ﾚｲﾔｰ1
370
    18
  6
Continuous
 62
     7
100
AcDbLine
 10
6619.715791
 20
590.441634
 30
0.0
 11
6618.915168
 21
590.455376
 31
0.0
  0
LINE
  5
337
100
AcDbEntity
  8
ﾚｲﾔｰ1
370
    18
  6
Continuous
 62
     7
100
AcDbLine
 10
6625.214933
 20
590.34724
 30
0.0
 11
6624.41431
 21
590.360983
 31
0.0
  0
LINE
  5
338
100
AcDbEntity
  8
ﾚｲﾔｰ1
370
    18
  6
Continuous
 62
     7
100
AcDbLine
 10
6625.194336
 20
589.147336
 30
0.0
 11
6625.214933
 21
590.34724
 31
0.0
  0
LINE
  5
339
100
AcDbEntity
  8
ﾚｲﾔｰ1
370
    18
  6
Continuous
 62
     7
100
AcDbLine
 10
6652.05424
 20
564.801365
 30
0.0
 11
6649.75424
 21
564.801365
 31
0.0
  0
ARC
  5
33A
100
AcDbEntity
  8
ﾚｲﾔｰ1
370
    18
  6
Continuous
 62
     7
100
AcDbCircle
 10
6871.11006
 20
398.301365
 30
0.0
 40
9.0
210
0.0
220
0.0
230
1.0
100
AcDbArc
 50
128.942441
 51
-128.942441
  0
LINE
  5
33B
100
AcDbEntity
  8
ﾚｲﾔｰ1
370
    18
  6
Continuous
 62
     7
100
AcDbLine
 10
6865.81006
 20
406.454217
 30
0.0
 11
6860.91006
 21
405.391078
 31
0.0
  0
LINE
  5
33C
100
AcDbEntity
  8
ﾚｲﾔｰ1
370
    18
  6
Continuous
 62
     7
100
AcDbLine
 10
6868.41006
 20
406.301365
 30
0.0
 11
6868.41006
 21
390.301365
 31
0.0
  0
LINE
  5
33D
100
AcDbEntity
  8
ﾚｲﾔｰ1
370
    18
  6
Continuous
 62
     7
100
AcDbLine
 10
6868.41006
 20
406.301365
 30
0.0
 11
6867.41006
 21
406.301365
 31
0.0
  0
LINE
  5
33E
100
AcDbEntity
  8
ﾚｲﾔｰ1
370
    18
  6
Continuous
 62
     7
100
AcDbLine
 10
6867.41006
 20
408.301363
 30
0.0
 11
6867.41006
 21
388.297677
 31
0.0
  0
LINE
  5
33F
100
AcDbEntity
  8
ﾚｲﾔｰ1
370
    18
  6
Continuous
 62
     7
100
AcDbLine
 10
6900.444557
 20
404.551365
 30
0.0
 11
6900.444557
 21
392.051365
 31
0.0
  0
LINE
  5
340
100
AcDbEntity
  8
ﾚｲﾔｰ1
370
    18
  6
Continuous
 62
     7
100
AcDbLine
 10
6905.244557
 20
403.051365
 30
0.0
 11
6904.914711
 21
403.051365
 31
0.0
  0
LINE
  5
341
100
AcDbEntity
  8
ﾚｲﾔｰ1
370
    18
  6
Continuous
 62
     7
100
AcDbLine
 10
6906.785376
 20
401.301365
 30
0.0
 11
6906.785376
 21
395.301365
 31
0.0
  0
LINE
  5
342
100
AcDbEntity
  8
ﾚｲﾔｰ1
370
    18
  6
Continuous
 62
     7
100
AcDbLine
 10
6905.244557
 20
393.551365
 30
0.0
 11
6904.914711
 21
393.551365
 31
0.0
  0
ELLIPSE
  5
343
100
AcDbEntity
  8
ﾚｲﾔｰ1
370
    18
  6
Continuous
 62
     7
100
AcDbEllipse
 10
6902.563972
 20
393.988865
 30
0.0
 11
1.8599911988567324
 21
1.4375000049772098
 31
0.0
210
0.0
220
0.0
230
-1.0
 40
1.0
 41
0.0
 42
0.6579673986526773
  0
LINE
  5
344
100
AcDbEntity
  8
ﾚｲﾔｰ1
370
    18
  6
Continuous
 62
     7
100
AcDbLine
 10
6899.444557
 20
406.301365
 30
0.0
 11
6899.444557
 21
390.301365
 31
0.0
  0
LINE
  5
345
100
AcDbEntity
  8
ﾚｲﾔｰ1
370
    18
  6
Continuous
 62
     7
100
AcDbLine
 10
6904.914711
 20
403.201365
 30
0.0
 11
6904.423964
 21
404.051365
 31
0.0
  0
LINE
  5
346
100
AcDbEntity
  8
ﾚｲﾔｰ1
370
    18
  6
Continuous
 62
     7
100
AcDbLine
 10
6904.914711
 20
393.401365
 30
0.0
 11
6904.914711
 21
403.201365
 31
0.0
  0
LINE
  5
347
100
AcDbEntity
  8
ﾚｲﾔｰ1
370
    18
  6
Continuous
 62
     7
100
AcDbLine
 10
6900.444557
 20
404.551365
 30
0.0
 11
6899.444557
 21
404.551365
 31
0.0
  0
LINE
  5
348
100
AcDbEntity
  8
ﾚｲﾔｰ1
370
    18
  6
Continuous
 62
     7
100
AcDbLine
 10
6900.444557
 20
392.051365
 30
0.0
 11
6899.444557
 21
392.051365
 31
0.0
  0
LINE
  5
349
100
AcDbEntity
  8
ﾚｲﾔｰ1
370
    18
  6
Continuous
 62
     7
100
AcDbLine
 10
6899.444557
 20
404.551365
 30
0.0
 11
6899.444557
 21
392.051365
 31
0.0
  0
LINE
  5
34A
100
AcDbEntity
  8
ﾚｲﾔｰ1
370
    18
  6
Continuous
 62
     7
100
AcDbLine
 10
6904.914711
 20
393.401365
 30
0.0
 11
6904.423964
 21
392.551365
 31
0.0
  0
LINE
  5
34B
100
AcDbEntity
  8
ﾚｲﾔｰ1
370
    18
  6
Continuous
 62
     7
100
AcDbLine
 10
6904.423964
 20
392.551365
 30
0.0
 11
6900.444557
 21
392.551365
 31
0.0
  0
LINE
  5
34C
100
AcDbEntity
  8
ﾚｲﾔｰ1
370
    18
  6
Continuous
 62
     7
100
AcDbLine
 10
6900.444557
 20
395.426365
 30
0.0
 11
6904.423964
 21
395.426365
 31
0.0
  0
LINE
  5
34D
100
AcDbEntity
  8
ﾚｲﾔｰ1
370
    18
  6
Continuous
 62
     7
100
AcDbLine
 10
6905.744557
 20
394.051365
 30
0.0
 11
6905.744557
 21
402.551365
 31
0.0
  0
ARC
  5
34E
100
AcDbEntity
  8
ﾚｲﾔｰ1
370
    18
  6
Continuous
 62
     7
100
AcDbCircle
 10
6905.244557
 20
402.551365
 30
0.0
 40
0.5
210
0.0
220
0.0
230
1.0
100
AcDbArc
 50
0.0
 51
90.0
  0
ARC
  5
34F
100
AcDbEntity
  8
ﾚｲﾔｰ1
370
    18
  6
Continuous
 62
     7
100
AcDbCircle
 10
6905.244557
 20
394.051365
 30
0.0
 40
0.5
100
AcDbArc
 50
-90.0
 51
0.0
  0
LINE
  5
350
100
AcDbEntity
  8
ﾚｲﾔｰ1
370
    18
  6
Continuous
 62
     7
100
AcDbLine
 10
6906.785376
 20
395.301365
 30
0.0
 11
6905.744557
 21
395.301365
 31
0.0
  0
LINE
  5
351
100
AcDbEntity
  8
ﾚｲﾔｰ1
370
    18
  6
Continuous
 62
     7
100
AcDbLine
 10
6905.744557
 20
401.301365
 30
0.0
 11
6906.785376
 21
401.301365
 31
0.0
  0
LINE
  5
352
100
AcDbEntity
  8
ﾚｲﾔｰ1
370
    18
  6
Continuous
 62
     7
100
AcDbLine
 10
6899.444557
 20
390.301365
 30
0.0
 11
6898.444557
 21
390.301365
 31
0.0
  0
LINE
  5
353
100
AcDbEntity
  8
レイヤー 1
370
    18
  6
Continuous
 62
     7
100
AcDbLine
 10
7338.444557
 20
-78.198635
 30
0.0
 11
7338.444557
 21
-15.198635
 31
0.0
  0
LINE
  5
354
100
AcDbEntity
  8
ﾚｲﾔｰ1
370
    18
  6
Continuous
 62
     7
100
AcDbLine
 10
7118.444557
 20
-18.498635
 30
0.0
 11
7337.944557
 21
-18.498635
 31
0.0
  0
LINE
  5
355
100
AcDbEntity
  8
ﾚｲﾔｰ1
370
    18
  6
Continuous
 62
     7
100
AcDbLine
 10
7337.944557
 20
-18.498635
 30
0.0
 11
7337.944557
 21
-15.198635
 31
0.0
  0
LINE
  5
356
100
AcDbEntity
  8
ﾚｲﾔｰ1
370
    18
  6
Continuous
 62
     7
100
AcDbLine
 10
7337.944557
 20
-15.198635
 30
0.0
 11
7364.444557
 21
-15.198635
 31
0.0
  0
LINE
  5
357
100
AcDbEntity
  8
ﾚｲﾔｰ1
370
    18
  6
Continuous
 62
     7
100
AcDbLine
 10
7118.444557
 20
42.101365
 30
0.0
 11
7337.944557
 21
42.101365
 31
0.0
  0
LINE
  5
358
100
AcDbEntity
  8
ﾚｲﾔｰ1
370
    18
  6
Continuous
 62
     7
100
AcDbLine
 10
7364.444557
 20
38.801365
 30
0.0
 11
7337.944557
 21
38.801365
 31
0.0
  0
CIRCLE
  5
359
100
AcDbEntity
  8
ﾚｲﾔｰ1
370
    18
  6
Continuous
 62
     7
100
AcDbCircle
 10
7353.444557
 20
31.801365
 30
0.0
 40
1.5
210
0.0
220
0.0
230
1.0
  0
CIRCLE
  5
35A
100
AcDbEntity
  8
ﾚｲﾔｰ1
370
    18
  6
Continuous
 62
     7
100
AcDbCircle
 10
7353.444557
 20
31.801365
 30
0.0
 40
5.0
210
0.0
220
0.0
230
1.0
  0
ARC
  5
35B
100
AcDbEntity
  8
ﾚｲﾔｰ1
370
    18
  6
Continuous
 62
     7
100
AcDbCircle
 10
7364.444557
 20
34.801365
 30
0.0
 40
4.0
210
0.0
220
0.0
230
1.0
100
AcDbArc
 50
0.0
 51
90.0
  0
LINE
  5
35C
100
AcDbEntity
  8
ﾚｲﾔｰ1
370
    18
  6
Continuous
 62
     7
100
AcDbLine
 10
7337.944557
 20
42.101365
 30
0.0
 11
7337.944557
 21
38.801365
 31
0.0
  0
CIRCLE
  5
35D
100
AcDbEntity
  8
ﾚｲﾔｰ1
370
    18
  6
Continuous
 62
     7
100
AcDbCircle
 10
6622.108811
 20
407.806079
 30
0.0
 40
8.5
  0
CIRCLE
  5
35E
100
AcDbEntity
  8
ﾚｲﾔｰ1
370
    18
  6
Continuous
 62
     7
100
AcDbCircle
 10
6622.108811
 20
407.806079
 30
0.0
 40
7.089713
  0
LINE
  5
35F
100
AcDbEntity
  8
ﾚｲﾔｰ1
370
    18
  6
Continuous
 62
     7
100
AcDbLine
 10
6900.444557
 20
401.176365
 30
0.0
 11
6904.423964
 21
401.176365
 31
0.0
  0
LINE
  5
360
100
AcDbEntity
  8
ﾚｲﾔｰ1
370
    18
  6
Continuous
 62
     7
100
AcDbLine
 10
6904.423964
 20
404.051365
 30
0.0
 11
6900.444557
 21
404.051365
 31
0.0
  0
LINE
  5
361
100
AcDbEntity
  8
ﾚｲﾔｰ1
370
    18
  6
Continuous
 62
     7
100
AcDbLine
 10
6865.453206
 20
391.301365
 30
0.0
 11
6865.81006
 21
391.301365
 31
0.0
  0
LINE
  5
362
100
AcDbEntity
  8
ﾚｲﾔｰ1
370
    18
  6
Continuous
 62
     7
100
AcDbLine
 10
6867.41006
 20
408.301365
 30
0.0
 11
6865.81006
 21
408.301365
 31
0.0
  0
LINE
  5
363
100
AcDbEntity
  8
ﾚｲﾔｰ1
370
    18
  6
Continuous
 62
     7
100
AcDbLine
 10
6867.41006
 20
406.301365
 30
0.0
 11
6867.41006
 21
390.301365
 31
0.0
  0
ARC
  5
364
100
AcDbEntity
  8
ﾚｲﾔｰ1
370
    18
  6
Continuous
 62
     7
100
AcDbCircle
 10
6902.563972
 20
402.613865
 30
0.0
 40
2.350739
210
0.0
220
0.0
230
1.0
100
AcDbArc
 50
-37.698755
 51
0.0
  0
ARC
  5
365
100
AcDbEntity
  8
ﾚｲﾔｰ1
370
    18
  6
Continuous
 62
     7
100
AcDbCircle
 10
6896.247877
 20
398.301365
 30
0.0
 40
8.666834
210
0.0
220
0.0
230
1.0
100
AcDbArc
 50
-19.373471
 51
19.373471
  0
LINE
  5
366
100
AcDbEntity
  8
ﾚｲﾔｰ1
370
    18
  6
Continuous
 62
     7
100
AcDbLine
 10
6865.81006
 20
391.301365
 30
0.0
 11
6865.81006
 21
405.301365
 31
0.0
  0
LINE
  5
367
100
AcDbEntity
  8
ﾚｲﾔｰ1
370
    18
  6
Continuous
 62
     7
100
AcDbLine
 10
6865.453206
 20
405.301365
 30
0.0
 11
6865.453206
 21
391.301365
 31
0.0
  0
LINE
  5
368
100
AcDbEntity
  8
ﾚｲﾔｰ1
370
    18
  6
Continuous
 62
     7
100
AcDbLine
 10
6865.81006
 20
405.301365
 30
0.0
 11
6865.453206
 21
405.301365
 31
0.0
  0
LINE
  5
369
100
AcDbEntity
  8
ﾚｲﾔｰ1
370
    18
  6
Continuous
 62
     7
100
AcDbLine
 10
6868.41006
 20
390.301365
 30
0.0
 11
6867.41006
 21
390.301365
 31
0.0
  0
LINE
  5
36A
100
AcDbEntity
  8
ﾚｲﾔｰ1
370
    18
  6
Continuous
 62
     7
100
AcDbLine
 10
6867.41006
 20
388.297679
 30
0.0
 11
6865.81006
 21
388.297679
 31
0.0
  0
LINE
  5
36B
100
AcDbEntity
  8
ﾚｲﾔｰ1
370
    18
  6
Continuous
 62
     7
100
AcDbLine
 10
6865.81006
 20
408.301363
 30
0.0
 11
6865.81006
 21
388.297677
 31
0.0
  0
CIRCLE
  5
36C
100
AcDbEntity
  8
ﾚｲﾔｰ1
370
    18
  6
Continuous
 62
     7
100
AcDbCircle
 10
6883.444557
 20
31.801365
 30
0.0
 40
1.5
  0
ARC
  5
36D
100
AcDbEntity
  8
ﾚｲﾔｰ1
370
    18
  6
Continuous
 62
     7
100
AcDbCircle
 10
6872.444557
 20
34.801365
 30
0.0
 40
4.0
100
AcDbArc
 50
90.0
 51
180.0
  0
CIRCLE
  5
36E
100
AcDbEntity
  8
ﾚｲﾔｰ1
370
    18
  6
Continuous
 62
     7
100
AcDbCircle
 10
6883.444557
 20
31.801365
 30
0.0
 40
5.0
  0
LINE
  5
36F
100
AcDbEntity
  8
ﾚｲﾔｰ1
370
    18
  6
Continuous
 62
     7
100
AcDbLine
 10
6672.05424
 20
38.801365
 30
0.0
 11
6674.35424
 21
38.801365
 31
0.0
  0
LINE
  5
370
100
AcDbEntity
  8
ﾚｲﾔｰ1
370
    18
  6
Continuous
 62
     7
100
AcDbLine
 10
6674.35424
 20
40.101368
 30
0.0
 11
6674.35424
 21
11.801365
 31
0.0
  0
ELLIPSE
  5
371
100
AcDbEntity
  8
ﾚｲﾔｰ1
370
    18
  6
Continuous
 62
     7
100
AcDbEllipse
 10
6662.050469
 20
235.818384
 30
0.0
 11
0.0059406182955741
 21
-9.9999982354675705
 31
0.0
210
0.0
220
0.0
230
-0.9999999999999999
 40
1.0
 41
-1.5707963267948966
 42
1.5690095798395585
  0
LINE
  5
372
100
AcDbEntity
  8
ﾚｲﾔｰ1
370
    18
  6
Continuous
 62
     7
100
AcDbLine
 10
6674.35424
 20
36.801365
 30
0.0
 11
6674.792847
 21
36.801365
 31
0.0
  0
LINE
  5
373
100
AcDbEntity
  8
ﾚｲﾔｰ1
370
    18
  6
Continuous
 62
     7
100
AcDbLine
 10
6674.35424
 20
26.801365
 30
0.0
 11
6674.35424
 21
36.801365
 31
0.0
  0
LINE
  5
374
100
AcDbEntity
  8
ﾚｲﾔｰ1
370
    18
  6
Continuous
 62
     7
100
AcDbLine
 10
6674.35424
 20
-3.198635
 30
0.0
 11
6674.792847
 21
-3.198635
 31
0.0
  0
ELLIPSE
  5
375
100
AcDbEntity
  8
ﾚｲﾔｰ1
370
    18
  6
Continuous
 62
     7
100
AcDbEllipse
 10
6666.711351
 20
31.801365
 30
0.0
 11
8.0814962834883772
 21
5.0000000000009095
 31
0.0
210
0.0
220
0.0
230
-1.0
 40
1.0
 41
0.0
 42
1.1081083985299385
  0
LINE
  5
376
100
AcDbEntity
  8
ﾚｲﾔｰ1
370
    18
  6
Continuous
 62
     7
100
AcDbLine
 10
6674.35424
 20
26.801365
 30
0.0
 11
6674.792847
 21
26.801365
 31
0.0
  0
LINE
  5
377
100
AcDbEntity
  8
ﾚｲﾔｰ1
370
    18
  6
Continuous
 62
     7
100
AcDbLine
 10
6672.35424
 20
42.101365
 30
0.0
 11
6672.05424
 21
42.101365
 31
0.0
  0
ELLIPSE
  5
378
100
AcDbEntity
  8
ﾚｲﾔｰ1
370
    18
  6
Continuous
 62
     7
100
AcDbEllipse
 10
6672.35424
 20
40.101365
 30
0.0
 11
2.0000000000000022
 21
0.0000000000000994
 31
0.0
210
0.0
220
0.0
230
-1.0
 40
1.0
 41
-1.5707963267948966
 42
0.0
  0
ELLIPSE
  5
379
100
AcDbEntity
  8
ﾚｲﾔｰ1
370
    18
  6
Continuous
 62
     7
100
AcDbEllipse
 10
6662.046585
 20
235.8145
 30
0.0
 11
3.1160725146910409
 21
-0.9233591301435808
 31
0.0
210
0.0
220
0.0
230
1.0
 40
1.0
 41
0.0
 42
6.2831853071795862
  0
INSERT
  5
381
100
AcDbEntity
  8
ﾚｲﾔｰ1
370
    18
  6
Continuous
 62
     7
100
AcDbBlockReference
  2
C9
 10
0.0
 20
0.0
 30
0.0
  0
LINE
  5
382
100
AcDbEntity
  8
ﾚｲﾔｰ1
370
    18
  6
Continuous
 62
     7
100
AcDbLine
 10
6611.749943
 20
44.579288
 30
0.0
 11
6612.049943
 21
44.579288
 31
0.0
  0
LINE
  5
383
100
AcDbEntity
  8
ﾚｲﾔｰ1
370
    18
  6
Continuous
 62
     7
100
AcDbLine
 10
6612.049943
 20
41.279288
 30
0.0
 11
6609.749943
 21
41.279288
 31
0.0
  0
LINE
  5
384
100
AcDbEntity
  8
ﾚｲﾔｰ1
370
    18
  6
Continuous
 62
     7
100
AcDbLine
 10
6609.749943
 20
42.57929
 30
0.0
 11
6609.749943
 21
14.279288
 31
0.0
  0
ELLIPSE
  5
385
100
AcDbEntity
  8
ﾚｲﾔｰ1
370
    18
  6
Continuous
 62
     7
100
AcDbEllipse
 10
6611.749943
 20
42.579288
 30
0.0
 11
-2.0000000000000022
 21
-0.0000000000012971
 31
0.0
210
0.0
220
0.0
230
1.0
 40
1.0
 41
-1.5707963267948966
 42
0.0
  0
ELLIPSE
  5
386
100
AcDbEntity
  8
ﾚｲﾔｰ1
370
    18
  6
Continuous
 62
     7
100
AcDbEllipse
 10
7367.444557
 20
-80.398635
 30
0.0
 11
0.9999999999999997
 21
0.0000000000005076
 31
0.0
210
0.0
220
0.0
230
1.0
 40
1.0
 41
-1.5707963267948966
 42
0.0
  0
LINE
  5
387
100
AcDbEntity
  8
ﾚｲﾔｰ1
370
    18
  6
Continuous
 62
     7
100
AcDbLine
 10
7368.444557
 20
-78.198635
 30
0.0
 11
7368.444557
 21
-80.398635
 31
0.0
  0
LINE
  5
388
100
AcDbEntity
  8
ﾚｲﾔｰ1
370
    18
  6
Continuous
 62
     7
100
AcDbLine
 10
7338.444557
 20
-78.198635
 30
0.0
 11
7338.444557
 21
-80.398635
 31
0.0
  0
ELLIPSE
  5
389
100
AcDbEntity
  8
ﾚｲﾔｰ1
370
    18
  6
Continuous
 62
     7
100
AcDbEllipse
 10
7339.444557
 20
-80.398635
 30
0.0
 11
-0.9999999999999997
 21
-0.0000000000005076
 31
0.0
210
0.0
220
0.0
230
-1.0
 40
1.0
 41
-1.5707963267948966
 42
0.0
  0
LINE
  5
38A
100
AcDbEntity
  8
ﾚｲﾔｰ1
370
    18
  6
Continuous
 62
     7
100
AcDbLine
 10
7367.444557
 20
-81.398635
 30
0.0
 11
7339.444557
 21
-81.398635
 31
0.0
  0
LINE
  5
38B
100
AcDbEntity
  8
ﾚｲﾔｰ1
370
    18
  6
Continuous
 62
     7
100
AcDbLine
 10
7368.444557
 20
-78.198635
 30
0.0
 11
7338.444557
 21
-78.198635
 31
0.0
  0
LINE
  5
38C
100
AcDbEntity
  8
ﾚｲﾔｰ1
370
    18
  6
Continuous
 62
     7
100
AcDbLine
 10
6593.64441
 20
-75.227474
 30
0.0
 11
6592.524358
 21
-75.658378
 31
0.0
  0
LINE
  5
38D
100
AcDbEntity
  8
ﾚｲﾔｰ1
370
    18
  6
Continuous
 62
     7
100
AcDbLine
 10
6594.023539
 20
-79.555212
 30
0.0
 11
6594.283916
 21
-80.23201
 31
0.0
  0
LINE
  5
38E
100
AcDbEntity
  8
ﾚｲﾔｰ1
370
    18
  6
Continuous
 62
     7
100
AcDbLine
 10
6595.403968
 20
-79.801106
 30
0.0
 11
6595.143591
 21
-79.124308
 31
0.0
  0
LINE
  5
38F
100
AcDbEntity
  8
ﾚｲﾔｰ1
370
    18
  6
Continuous
 62
     7
100
AcDbLine
 10
6611.749943
 20
-16.020712
 30
0.0
 11
6612.049943
 21
-16.020712
 31
0.0
  0
LINE
  5
390
100
AcDbEntity
  8
ﾚｲﾔｰ1
370
    18
  6
Continuous
 62
     7
100
AcDbLine
 10
6609.749943
 20
-47.837827
 30
0.0
 11
6607.437725
 21
-47.837827
 31
0.0
  0
LINE
  5
391
100
AcDbEntity
  8
ﾚｲﾔｰ1
370
    18
  6
Continuous
 62
     7
100
AcDbLine
 10
6612.049943
 20
-47.837827
 30
0.0
 11
6609.749943
 21
-47.837827
 31
0.0
  0
ELLIPSE
  5
392
100
AcDbEntity
  8
ﾚｲﾔｰ1
370
    18
  6
Continuous
 62
     7
100
AcDbEllipse
 10
6611.749943
 20
-81.020712
 30
0.0
 11
-0.000000000001412
 21
-2.0000000000010054
 31
0.0
210
0.0
220
0.0
230
1.0
 40
1.0
 41
-1.5707963267948966
 42
0.0000000000004408
  0
LINE
  5
393
100
AcDbEntity
  8
ﾚｲﾔｰ1
370
    18
  6
Continuous
 62
     7
100
AcDbLine
 10
6598.659513
 20
-83.589126
 30
0.0
 11
6603.378933
 21
-79.803389
 31
0.0
  0
ELLIPSE
  5
394
100
AcDbEntity
  8
ﾚｲﾔｰ1
370
    18
  6
Continuous
 62
     7
100
AcDbEllipse
 10
6593.966593
 20
-77.738784
 30
0.0
 11
4.6929225081771815
 21
-5.8503400185189287
 31
0.0
210
0.0
220
0.0
230
-1.0
 40
1.0
 41
0.0
 42
2.8311711408214943
  0
ARC
  5
395
100
AcDbEntity
  8
ﾚｲﾔｰ1
370
    18
  6
Continuous
 62
     7
100
AcDbCircle
 10
6591.735226
 20
-76.738941
 30
0.0
 40
1.124497
210
0.0
220
0.0
230
1.0
100
AcDbArc
 50
-68.957382
 51
21.042618
  0
LINE
  5
396
100
AcDbEntity
  8
ﾚｲﾔｰ1
370
    18
  6
Continuous
 62
     7
100
AcDbLine
 10
6591.46256
 20
-78.049782
 30
0.0
 11
6591.893464
 21
-79.169835
 31
0.0
  0
LINE
  5
397
100
AcDbEntity
  8
ﾚｲﾔｰ1
370
    18
  6
Continuous
 62
     7
100
AcDbLine
 10
6592.139359
 20
-77.789406
 30
0.0
 11
6591.46256
 21
-78.049782
 31
0.0
  0
ELLIPSE
  5
398
100
AcDbEntity
  8
ﾚｲﾔｰ1
370
    18
  6
Continuous
 62
     7
100
AcDbEllipse
 10
6613.049943
 20
-79.720712
 30
0.0
 11
-1.0000000000000007
 21
0.0000000000007043
 31
0.0
210
0.0
220
0.0
230
-1.0
 40
1.0
 41
-1.5707963267948966
 42
0.0
  0
LINE
  5
399
100
AcDbEntity
  8
ﾚｲﾔｰ1
370
    18
  6
Continuous
 62
     7
100
AcDbLine
 10
6596.035236
 20
-76.290593
 30
0.0
 11
6595.359384
 21
-76.550605
 31
0.0
  0
LINE
  5
39A
100
AcDbEntity
  8
ﾚｲﾔｰ1
370
    18
  6
Continuous
 62
     7
100
AcDbLine
 10
6587.710927
 20
-73.601558
 30
0.0
 11
6603.267281
 21
-50.079676
 31
0.0
  0
DIMENSION
  5
3A7
100
AcDbEntity
  8
寸法線
370
     5
  6
Continuous
 62
     5
100
AcDbDimension
  2
*D13
 10
6676.214539
 20
-154.569052
 30
0.0
 11
6628.84331
 21
-154.569052
 31
0.0
 71
     5
 72
     1
 41
1.0
 42
0.0
  3
DS1
100
AcDbAlignedDimension
 13
6581.472081
 23
-90.192581
 33
0.0
 14
6676.214539
 24
-90.192581
 34
0.0
100
AcDbRotatedDimension
  0
LINE
  5
3A8
100
AcDbEntity
  8
ﾚｲﾔｰ1
370
    18
  6
Continuous
 62
     7
100
AcDbLine
 10
6612.049943
 20
-79.720712
 30
0.0
 11
6612.049943
 21
-80.720712
 31
0.0
  0
LINE
  5
3A9
100
AcDbEntity
  8
ﾚｲﾔｰ1
370
    18
  6
Continuous
 62
     7
100
AcDbLine
 10
6612.049943
 20
-80.720712
 30
0.0
 11
6624.049943
 21
-80.720712
 31
0.0
  0
LINE
  5
3AA
100
AcDbEntity
  8
レイヤー 1
370
    18
  6
Continuous
 62
     7
100
AcDbLine
 10
6609.749943
 20
-81.020712
 30
0.0
 11
6609.749943
 21
-78.703617
 31
0.0
  0
LINE
  5
3AB
100
AcDbEntity
  8
ﾚｲﾔｰ1
370
    18
  6
Continuous
 62
     7
100
AcDbLine
 10
6611.749943
 20
-83.020712
 30
0.0
 11
6624.049943
 21
-83.020712
 31
0.0
  0
CIRCLE
  5
3AC
100
AcDbEntity
  8
ﾚｲﾔｰ1
370
    18
  6
Continuous
 62
     7
100
AcDbCircle
 10
6593.964639
 20
-77.729553
 30
0.0
 40
4.500048
210
0.0
220
0.0
230
1.0
  0
ELLIPSE
  5
3AD
100
AcDbEntity
  8
ﾚｲﾔｰ1
370
    18
  6
Continuous
 62
     7
100
AcDbEllipse
 10
6596.194056
 20
-78.720175
 30
0.0
 11
-0.4041324439450558
 21
1.0504648866577566
 31
0.0
210
0.0
220
0.0
230
-1.0
 40
1.0
 41
-1.5707963267948966
 42
0.0
  0
ELLIPSE
  5
3AE
100
AcDbEntity
  8
ﾚｲﾔｰ1
370
    18
  6
Continuous
 62
     7
100
AcDbEllipse
 10
6606.507546
 20
-83.703617
 30
0.0
 11
3.9002280266789482
 21
3.1286133254063735
 31
0.0
210
0.0
220
0.0
230
-1.0
 40
1.0
 41
-1.5707963267948966
 42
-0.894738698186078
  0
LINE
  5
3AF
100
AcDbEntity
  8
ﾚｲﾔｰ1
370
    18
  6
Continuous
 62
     7
100
AcDbLine
 10
6898.944557
 20
42.101365
 30
0.0
 11
6898.944557
 21
38.801365
 31
0.0
  0
LINE
  5
3B0
100
AcDbEntity
  8
ﾚｲﾔｰ1
370
    18
  6
Continuous
 62
     7
100
AcDbLine
 10
6872.444556
 20
38.801365
 30
0.0
 11
6898.944557
 21
38.801365
 31
0.0
  0
LINE
  5
3B1
100
AcDbEntity
  8
ﾚｲﾔｰ1
370
    18
  6
Continuous
 62
     7
100
AcDbLine
 10
6898.944557
 20
-18.498635
 30
0.0
 11
6898.944557
 21
-15.198635
 31
0.0
  0
LINE
  5
3B2
100
AcDbEntity
  8
ﾚｲﾔｰ1
370
    18
  6
Continuous
 62
     7
100
AcDbLine
 10
6898.944557
 20
-15.198635
 30
0.0
 11
6872.444557
 21
-15.198635
 31
0.0
  0
LINE
  5
3B3
100
AcDbEntity
  8
ﾚｲﾔｰ1
370
    18
  6
Continuous
 62
     7
100
AcDbLine
 10
6672.05424
 20
-15.198635
 30
0.0
 11
6674.35424
 21
-15.198635
 31
0.0
  0
ELLIPSE
  5
3B4
100
AcDbEntity
  8
ﾚｲﾔｰ1
370
    18
  6
Continuous
 62
     7
100
AcDbEllipse
 10
6672.35424
 20
-16.498635
 30
0.0
 11
2.0000000000000022
 21
0.0000000000000994
 31
0.0
210
0.0
220
0.0
230
1.0
 40
1.0
 41
-1.5707963267948966
 42
0.0
  0
LINE
  5
3B5
100
AcDbEntity
  8
ﾚｲﾔｰ1
370
    18
  6
Continuous
 62
     7
100
AcDbLine
 10
6672.35424
 20
-18.498635
 30
0.0
 11
6672.05424
 21
-18.498635
 31
0.0
  0
LINE
  5
3B6
100
AcDbEntity
  8
ﾚｲﾔｰ1
370
    18
  6
Continuous
 62
     7
100
AcDbLine
 10
6612.049943
 20
-77.720712
 30
0.0
 11
6612.049943
 21
-79.720712
 31
0.0
  0
LINE
  5
3B7
100
AcDbEntity
  8
ﾚｲﾔｰ1
370
    18
  6
Continuous
 62
     7
100
AcDbLine
 10
6632.049943
 20
-77.720712
 30
0.0
 11
6632.049943
 21
-79.720712
 31
0.0
  0
LINE
  5
3B8
100
AcDbEntity
  8
ﾚｲﾔｰ1
370
    18
  6
Continuous
 62
     7
100
AcDbLine
 10
6606.507546
 20
-78.703617
 30
0.0
 11
6612.049943
 21
-78.703617
 31
0.0
  0
LINE
  5
3B9
100
AcDbEntity
  8
レイヤー 1
370
    18
  6
Continuous
 62
     7
100
AcDbLine
 10
6624.049943
 20
-83.020712
 30
0.0
 11
6624.049943
 21
-80.720712
 31
0.0
  0
LINE
  5
3BA
100
AcDbEntity
  8
レイヤー 1
370
    18
  6
Continuous
 62
     7
100
AcDbLine
 10
6612.049943
 20
-77.720712
 30
0.0
 11
6632.049943
 21
-77.720712
 31
0.0
  0
LINE
  5
3BB
100
AcDbEntity
  8
ﾚｲﾔｰ1
370
    18
  6
Continuous
 62
     7
100
AcDbLine
 10
6612.049943
 20
-12.720712
 30
0.0
 11
6609.749943
 21
-12.720712
 31
0.0
  0
LINE
  5
3BC
100
AcDbEntity
  8
ﾚｲﾔｰ1
370
    18
  6
Continuous
 62
     7
100
AcDbLine
 10
6674.35424
 20
-13.198635
 30
0.0
 11
6674.792847
 21
-13.198635
 31
0.0
  0
ELLIPSE
  5
3BD
100
AcDbEntity
  8
ﾚｲﾔｰ1
370
    18
  6
Continuous
 62
     7
100
AcDbEllipse
 10
6607.437725
 20
-52.837827
 30
0.0
 11
2.7581509940375852
 21
4.1704439924415313
 31
0.0
210
0.0
220
0.0
230
-1.0
 40
1.0
 41
-1.5707963267948966
 42
-0.584317444298409
  0
ELLIPSE
  5
3BE
100
AcDbEntity
  8
ﾚｲﾔｰ1
370
    18
  6
Continuous
 62
     7
100
AcDbEllipse
 10
6593.966593
 20
-77.738784
 30
0.0
 11
-4.479581601230282
 21
11.669762151731112
 31
0.0
210
0.0
220
0.0
230
-1.0
 40
1.0
 41
2.0146266240744688
 42
6.5905192630358265
  0
LINE
  5
3BF
100
AcDbEntity
  8
ﾚｲﾔｰ1
370
    18
  6
Continuous
 62
     7
100
AcDbLine
 10
6591.893464
 20
-79.169835
 30
0.0
 11
6592.570263
 21
-78.909458
 31
0.0
  0
LINE
  5
3C0
100
AcDbEntity
  8
ﾚｲﾔｰ1
370
    18
  6
Continuous
 62
     7
100
AcDbLine
 10
6592.524358
 20
-75.658378
 30
0.0
 11
6592.784735
 21
-76.335177
 31
0.0
  0
LINE
  5
3C1
100
AcDbEntity
  8
ﾚｲﾔｰ1
370
    18
  6
Continuous
 62
     7
100
AcDbLine
 10
6593.904787
 20
-75.904273
 30
0.0
 11
6593.64441
 21
-75.227474
 31
0.0
  0
LINE
  5
3C2
100
AcDbEntity
  8
ﾚｲﾔｰ1
370
    18
  6
Continuous
 62
     7
100
AcDbLine
 10
6594.283916
 20
-80.23201
 30
0.0
 11
6595.403968
 21
-79.801106
 31
0.0
  0
LINE
  5
3C3
100
AcDbEntity
  8
ﾚｲﾔｰ1
370
    18
  6
Continuous
 62
     7
100
AcDbLine
 10
6612.049943
 20
-77.720712
 30
0.0
 11
6632.049943
 21
-77.720712
 31
0.0
  0
ELLIPSE
  5
3C4
100
AcDbEntity
  8
ﾚｲﾔｰ1
370
    18
  6
Continuous
 62
     7
100
AcDbEllipse
 10
6631.049943
 20
-79.720712
 30
0.0
 11
1.0000000000000007
 21
-0.0000000000007043
 31
0.0
210
0.0
220
0.0
230
1.0
 40
1.0
 41
-1.5707963267948966
 42
0.0
  0
LINE
  5
3C5
100
AcDbEntity
  8
ﾚｲﾔｰ1
370
    18
  6
Continuous
 62
     7
100
AcDbLine
 10
6613.049943
 20
-80.720712
 30
0.0
 11
6631.049943
 21
-80.720712
 31
0.0
  0
ELLIPSE
  5
3C6
100
AcDbEntity
  8
ﾚｲﾔｰ1
370
    18
  6
Continuous
 62
     7
100
AcDbEllipse
 10
6592.974031
 20
-79.958976
 30
0.0
 11
1.0495180558224313
 21
0.4037681813558511
 31
0.0
210
0.0
220
0.0
230
-1.0
 40
1.0
 41
-1.5707963267948966
 42
-0.0000000000003164
  0
LINE
  5
3C7
100
AcDbEntity
  8
ﾚｲﾔｰ1
370
    18
  6
Continuous
 62
     7
100
AcDbLine
 10
6595.790288
 20
-77.670657
 30
0.0
 11
6596.46614
 21
-77.410645
 31
0.0
  0
LINE
  5
3C8
100
AcDbEntity
  8
ﾚｲﾔｰ1
370
    18
  6
Continuous
 62
     7
100
AcDbLine
 10
6596.46614
 20
-77.410645
 30
0.0
 11
6596.035236
 21
-76.290593
 31
0.0
  0
ELLIPSE
  5
3C9
100
AcDbEntity
  8
ﾚｲﾔｰ1
370
    18
  6
Continuous
 62
     7
100
AcDbEllipse
 10
6594.955252
 20
-75.50014
 30
0.0
 11
-1.0504648866577566
 21
-0.4041324439450558
 31
0.0
210
0.0
220
0.0
230
-1.0
 40
1.0
 41
-1.5707963267948966
 42
0.0
  0
LINE
  5
3CA
100
AcDbEntity
  8
ﾚｲﾔｰ1
370
     5
  6
Continuous
 62
     5
100
AcDbLine
 10
7666.810134
 20
779.422131
 30
0.0
 11
7660.810134
 21
763.422131
 31
0.0
  0
LINE
  5
3CB
100
AcDbEntity
  8
ﾚｲﾔｰ1
370
     5
  6
Continuous
 62
     5
100
AcDbLine
 10
7672.810134
 20
763.422131
 30
0.0
 11
7666.810134
 21
779.422131
 31
0.0
  0
LINE
  5
3CC
100
AcDbEntity
  8
ﾚｲﾔｰ1
370
    18
  6
Continuous
 62
     7
100
AcDbLine
 10
8454.875136
 20
616.700392
 30
0.0
 11
8454.875136
 21
1028.700392
 31
0.0
  0
LINE
  5
3CD
100
AcDbEntity
  8
ﾚｲﾔｰ1
370
    18
  6
Continuous
 62
     7
100
AcDbLine
 10
8484.875136
 20
612.700392
 30
0.0
 11
8484.875136
 21
1032.700392
 31
0.0
  0
LINE
  5
3CE
100
AcDbEntity
  8
ﾚｲﾔｰ1
370
    18
  6
Continuous
 62
     7
100
AcDbLine
 10
8473.160685
 20
702.700384
 30
0.0
 11
8473.160685
 21
782.698787
 31
0.0
  0
LINE
  5
3CF
100
AcDbEntity
  8
ﾚｲﾔｰ1
370
    18
  6
Continuous
 62
     7
100
AcDbLine
 10
8464.660685
 20
702.700384
 30
0.0
 11
8464.660685
 21
782.698787
 31
0.0
  0
LINE
  5
3D0
100
AcDbEntity
  8
ﾚｲﾔｰ1
370
     5
  6
Continuous
 62
     5
100
AcDbLine
 10
8548.910685
 20
782.700392
 30
0.0
 11
8542.910685
 21
766.700392
 31
0.0
  0
LINE
  5
3D1
100
AcDbEntity
  8
ﾚｲﾔｰ1
370
     5
  6
Continuous
 62
     5
100
AcDbLine
 10
8548.910685
 20
782.700392
 30
0.0
 11
8548.910685
 21
742.700388
 31
0.0
  0
LINE
  5
3D2
100
AcDbEntity
  8
ﾚｲﾔｰ1
370
     5
  6
Continuous
 62
     5
100
AcDbLine
 10
8554.910685
 20
766.700392
 30
0.0
 11
8548.910685
 21
782.700392
 31
0.0
  0
LINE
  5
3D3
100
AcDbEntity
  8
ﾚｲﾔｰ1
370
     5
  6
Continuous
 62
     5
100
AcDbLine
 10
8597.509207
 20
622.700392
 30
0.0
 11
8597.509207
 21
822.700392
 31
0.0
  0
LINE
  5
3D4
100
AcDbEntity
  8
ﾚｲﾔｰ1
370
    18
  6
Continuous
 62
     7
100
AcDbLine
 10
6672.05424
 20
-78.198635
 30
0.0
 11
6672.05424
 21
-80.398635
 31
0.0
  0
ELLIPSE
  5
3D5
100
AcDbEntity
  8
ﾚｲﾔｰ1
370
    18
  6
Continuous
 62
     7
100
AcDbEllipse
 10
6671.05424
 20
-80.398635
 30
0.0
 11
0.9999999999999998
 21
0.0000000000000742
 31
0.0
210
0.0
220
0.0
230
1.0
 40
1.0
 41
-1.5707963267948966
 42
0.0
  0
LINE
  5
3D6
100
AcDbEntity
  8
ﾚｲﾔｰ1
370
    18
  6
Continuous
 62
     7
100
AcDbLine
 10
6652.05424
 20
-78.198635
 30
0.0
 11
6652.05424
 21
-80.398635
 31
0.0
  0
ELLIPSE
  5
3D7
100
AcDbEntity
  8
ﾚｲﾔｰ1
370
    18
  6
Continuous
 62
     7
100
AcDbEllipse
 10
6653.05424
 20
-80.398635
 30
0.0
 11
-0.9999999999999998
 21
-0.0000000000000742
 31
0.0
210
0.0
220
0.0
230
-1.0
 40
1.0
 41
-1.5707963267948966
 42
0.0
  0
LINE
  5
3D8
100
AcDbEntity
  8
レイヤー 1
370
    18
  6
Continuous
 62
     7
100
AcDbLine
 10
6672.05424
 20
-78.198635
 30
0.0
 11
6652.05424
 21
-78.198635
 31
0.0
  0
LINE
  5
3D9
100
AcDbEntity
  8
ﾚｲﾔｰ1
370
    18
  6
Continuous
 62
     7
100
AcDbLine
 10
6671.05424
 20
-81.398635
 30
0.0
 11
6653.05424
 21
-81.398635
 31
0.0
  0
LINE
  5
3DA
100
AcDbEntity
  8
ﾚｲﾔｰ1
370
    18
  6
Continuous
 62
     7
100
AcDbLine
 10
6672.05424
 20
-78.198635
 30
0.0
 11
6652.05424
 21
-78.198635
 31
0.0
  0
ELLIPSE
  5
3DB
100
AcDbEntity
  8
ﾚｲﾔｰ1
370
    18
  6
Continuous
 62
     7
100
AcDbEllipse
 10
6897.444557
 20
-80.398635
 30
0.0
 11
0.9999999999999997
 21
-0.0000000000005076
 31
0.0
210
0.0
220
0.0
230
1.0
 40
1.0
 41
-1.5707963267948966
 42
0.0
  0
LINE
  5
3DC
100
AcDbEntity
  8
ﾚｲﾔｰ1
370
    18
  6
Continuous
 62
     7
100
AcDbLine
 10
6869.444557
 20
-81.398635
 30
0.0
 11
6897.444557
 21
-81.398635
 31
0.0
  0
LINE
  5
3DD
100
AcDbEntity
  8
ﾚｲﾔｰ1
370
    18
  6
Continuous
 62
     7
100
AcDbLine
 10
6898.444557
 20
-78.198635
 30
0.0
 11
6898.444557
 21
-80.398635
 31
0.0
  0
LINE
  5
3DE
100
AcDbEntity
  8
ﾚｲﾔｰ1
370
    18
  6
Continuous
 62
     7
100
AcDbLine
 10
6868.444557
 20
-78.198635
 30
0.0
 11
6868.444557
 21
-80.398635
 31
0.0
  0
ELLIPSE
  5
3DF
100
AcDbEntity
  8
ﾚｲﾔｰ1
370
    18
  6
Continuous
 62
     7
100
AcDbEllipse
 10
6869.444557
 20
-80.398635
 30
0.0
 11
-0.9999999999999997
 21
0.0000000000005076
 31
0.0
210
0.0
220
0.0
230
-1.0
 40
1.0
 41
-1.5707963267948966
 42
0.0
  0
LINE
  5
3E0
100
AcDbEntity
  8
ﾚｲﾔｰ1
370
    18
  6
Continuous
 62
     7
100
AcDbLine
 10
6868.444557
 20
-78.198635
 30
0.0
 11
6898.444557
 21
-78.198635
 31
0.0
  0
ELLIPSE
  5
3E1
100
AcDbEntity
  8
ﾚｲﾔｰ1
370
    18
  6
Continuous
 62
     7
100
AcDbEllipse
 10
6611.749943
 20
-14.020712
 30
0.0
 11
-2.0000000000000022
 21
-0.0000000000012971
 31
0.0
210
0.0
220
0.0
230
-1.0
 40
1.0
 41
-1.5707963267948966
 42
0.0
  0
LINE
  5
3E2
100
AcDbEntity
  8
レイヤー 1
370
    18
  6
Continuous
 62
     7
100
AcDbLine
 10
6898.444557
 20
-78.198635
 30
0.0
 11
6898.444557
 21
-15.198635
 31
0.0
  0
LINE
  5
3E3
100
AcDbEntity
  8
レイヤー 1
370
    18
  6
Continuous
 62
     7
100
AcDbLine
 10
6652.05424
 20
-78.198635
 30
0.0
 11
6652.050498
 21
235.794576
 31
0.0
  0
ELLIPSE
  5
3E4
100
AcDbEntity
  8
ﾚｲﾔｰ1
370
    18
  6
Continuous
 62
     7
100
AcDbEllipse
 10
6666.711351
 20
-8.198635
 30
0.0
 11
8.0814962834847393
 21
5.0000000000004547
 31
0.0
210
0.0
220
0.0
230
-1.0
 40
1.0
 41
0.0
 42
1.1081083985303679
  0
INSERT
  5
3EC
100
AcDbEntity
  8
ﾚｲﾔｰ1
370
    18
  6
Continuous
 62
     7
100
AcDbBlockReference
  2
C10
 10
0.0
 20
0.0
 30
0.0
  0
LINE
  5
3ED
100
AcDbEntity
  8
ﾚｲﾔｰ1
370
    18
  6
Continuous
 62
     7
100
AcDbLine
 10
6674.35424
 20
-13.198635
 30
0.0
 11
6674.35424
 21
-3.198635
 31
0.0
  0
CIRCLE
  5
3EE
100
AcDbEntity
  8
ﾚｲﾔｰ1
370
    18
  6
Continuous
 62
     7
100
AcDbCircle
 10
7353.444557
 20
-8.198635
 30
0.0
 40
1.5
210
0.0
220
0.0
230
1.0
  0
CIRCLE
  5
3EF
100
AcDbEntity
  8
ﾚｲﾔｰ1
370
    18
  6
Continuous
 62
     7
100
AcDbCircle
 10
7353.444557
 20
-8.198635
 30
0.0
 40
5.0
210
0.0
220
0.0
230
1.0
  0
ARC
  5
3F0
100
AcDbEntity
  8
ﾚｲﾔｰ1
370
    18
  6
Continuous
 62
     7
100
AcDbCircle
 10
7364.444557
 20
-11.198635
 30
0.0
 40
4.0
100
AcDbArc
 50
-90.0
 51
0.0
  0
LINE
  5
3F1
100
AcDbEntity
  8
ﾚｲﾔｰ1
370
    18
  6
Continuous
 62
     7
100
AcDbLine
 10
7368.444557
 20
-11.198635
 30
0.0
 11
7368.444557
 21
34.801365
 31
0.0
  0
LINE
  5
3F2
100
AcDbEntity
  8
ﾚｲﾔｰ1
370
    18
  6
Continuous
 62
     7
100
AcDbLine
 10
7002.444557
 20
590.101365
 30
0.0
 11
7002.444557
 21
1010.101365
 31
0.0
  0
LINE
  5
3F3
100
AcDbEntity
  8
レイヤー 1
370
    18
  6
Continuous
 62
     7
100
AcDbLine
 10
6652.050471
 20
398.300533
 30
0.0
 11
6652.05424
 21
846.801365
 31
0.0
  0
LINE
  5
3F4
100
AcDbEntity
  8
レイヤー 1
370
    18
  6
Continuous
 62
     7
100
AcDbLine
 10
6898.444557
 20
631.750255
 30
0.0
 11
6898.444557
 21
777.801365
 31
0.0
  0
LINE
  5
3F5
100
AcDbEntity
  8
ﾚｲﾔｰ1
370
    18
  6
Continuous
 62
     7
100
AcDbLine
 10
7234.444557
 20
590.101365
 30
0.0
 11
7234.444557
 21
1010.101365
 31
0.0
  0
LINE
  5
3F6
100
AcDbEntity
  8
ﾚｲﾔｰ1
370
    18
  6
Continuous
 62
     7
100
AcDbLine
 10
7204.444557
 20
594.101365
 30
0.0
 11
7204.444557
 21
1006.101365
 31
0.0
  0
LINE
  5
3F7
100
AcDbEntity
  8
ﾚｲﾔｰ1
370
    18
  6
Continuous
 62
     7
100
AcDbLine
 10
7032.444557
 20
594.101365
 30
0.0
 11
7032.444557
 21
1006.101365
 31
0.0
  0
LINE
  5
3F8
100
AcDbEntity
  8
ﾚｲﾔｰ1
370
    18
  6
Continuous
 62
     7
100
AcDbLine
 10
7058.444557
 20
635.050255
 30
0.0
 11
7058.444557
 21
774.501365
 31
0.0
  0
LINE
  5
3F9
100
AcDbEntity
  8
レイヤー 1
370
    18
  6
Continuous
 62
     7
100
AcDbLine
 10
7338.444557
 20
631.750255
 30
0.0
 11
7338.444557
 21
777.801365
 31
0.0
  0
LINE
  5
3FA
100
AcDbEntity
  8
ﾚｲﾔｰ1
370
    18
  6
Continuous
 62
     7
100
AcDbLine
 10
7178.444557
 20
635.050255
 30
0.0
 11
7178.444557
 21
774.501365
 31
0.0
  0
LINE
  5
3FB
100
AcDbEntity
  8
ﾚｲﾔｰ1
370
     5
  6
Continuous
 62
     5
100
AcDbLine
 10
7737.877547
 20
-170.569052
 30
0.0
 11
7737.877547
 21
327.351623
 31
0.0
  0
LINE
  5
3FC
100
AcDbEntity
  8
ﾚｲﾔｰ1
370
     5
  6
Continuous
 62
     5
100
AcDbLine
 10
7666.810134
 20
-70.151296
 30
0.0
 11
7666.810134
 21
354.635417
 31
0.0
  0
INSERT
  5
404
100
AcDbEntity
  8
ﾚｲﾔｰ1
370
    18
  6
Continuous
 62
     7
100
AcDbBlockReference
  2
C11
 10
0.0
 20
0.0
 30
0.0
  0
LINE
  5
405
100
AcDbEntity
  8
ﾚｲﾔｰ1
370
     5
  6
Continuous
 62
     5
100
AcDbLine
 10
8311.046769
 20
-2.701123
 30
0.0
 11
8265.497977
 21
-43.961897
 31
0.0
  0
SOLID
  5
406
100
AcDbEntity
  8
ﾚｲﾔｰ1
 62
     5
100
AcDbTrace
 10
8279.256965
 20
-23.402464
 30
0.0
 11
8265.497977
 21
-43.961897
 31
0.0
 12
8265.497977
 22
-43.961897
 32
0.0
 13
8287.313288
 23
-32.296039
 33
0.0
  0
LINE
  5
407
100
AcDbEntity
  8
レイヤー 1
370
    18
  6
Continuous
 62
     7
100
AcDbLine
 10
7909.125058
 20
398.843372
 30
0.0
 11
8043.468942
 21
812.310092
 31
0.0
  0
LINE
  5
408
100
AcDbEntity
  8
ﾚｲﾔｰ1
370
    18
  6
Continuous
 62
     7
100
AcDbLine
 10
8058.457156
 20
979.143942
 30
0.0
 11
7928.669666
 21
579.700319
 31
0.0
  0
LINE
  5
409
100
AcDbEntity
  8
ﾚｲﾔｰ1
370
    18
  6
Continuous
 62
     7
100
AcDbLine
 10
8018.644879
 20
808.073832
 30
0.0
 11
7961.785597
 21
633.079483
 31
0.0
  0
INSERT
  5
427
100
AcDbEntity
  8
ﾚｲﾔｰ1
370
    18
  6
Continuous
 62
     7
100
AcDbBlockReference
  2
C12
 10
0.0
 20
0.0
 30
0.0
  0
LINE
  5
428
100
AcDbEntity
  8
ﾚｲﾔｰ1
370
    18
  6
Continuous
 62
     7
100
AcDbLine
 10
7028.444557
 20
1010.101365
 30
0.0
 11
7002.444557
 21
1010.101365
 31
0.0
  0
LINE
  5
429
100
AcDbEntity
  8
ﾚｲﾔｰ1
370
    18
  6
Continuous
 62
     7
100
AcDbLine
 10
7118.444557
 20
574.450255
 30
0.0
 11
6898.944557
 21
574.450255
 31
0.0
  0
LINE
  5
42A
100
AcDbEntity
  8
ﾚｲﾔｰ1
370
     5
  6
Continuous
 62
     5
100
AcDbLine
 10
8270.97417
 20
-154.569052
 30
0.0
 11
7989.039254
 21
-154.569052
 31
0.0
  0
LINE
  5
42B
100
AcDbEntity
  8
ﾚｲﾔｰ1
370
     5
  6
Continuous
 62
     5
100
AcDbLine
 10
8242.308373
 20
-114.307684
 30
0.0
 11
7990.09296
 21
-114.307684
 31
0.0
  0
MTEXT
  5
42C
100
AcDbEntity
  8
ﾚｲﾔｰ1
370
    40
  6
Continuous
 62
     7
100
AcDbMText
 10
8111.772841
 20
-247.652
 30
0.0
 40
25.400001
 41
187.865785
 71
     1
 72
     1
  1
約8.5ｋｇ
  7
Style1
 73
     1
 44
1.0
  0
LINE
  5
42D
100
AcDbEntity
  8
ﾚｲﾔｰ1
370
    40
  6
Continuous
 62
     7
100
AcDbLine
 10
8007.034135
 20
-220.511031
 30
0.0
 11
8675.619435
 21
-220.511031
 31
0.0
  0
LINE
  5
42E
100
AcDbEntity
  8
ﾚｲﾔｰ1
370
    40
  6
Continuous
 62
     7
100
AcDbLine
 10
8007.034135
 20
-396.825844
 30
0.0
 11
8675.619435
 21
-396.825844
 31
0.0
  0
LINE
  5
42F
100
AcDbEntity
  8
ﾚｲﾔｰ1
370
    40
  6
Continuous
 62
     7
100
AcDbLine
 10
8007.034135
 20
-370.265198
 30
0.0
 11
8675.619435
 21
-370.265198
 31
0.0
  0
LINE
  5
430
100
AcDbEntity
  8
ﾚｲﾔｰ1
370
    40
  6
Continuous
 62
     7
100
AcDbLine
 10
8007.034135
 20
-326.753615
 30
0.0
 11
8675.619435
 21
-326.753615
 31
0.0
  0
LINE
  5
431
100
AcDbEntity
  8
ﾚｲﾔｰ1
370
    40
  6
Continuous
 62
     7
100
AcDbLine
 10
8007.034135
 20
-300.192969
 30
0.0
 11
8675.619435
 21
-300.192969
 31
0.0
  0
MTEXT
  5
432
100
AcDbEntity
  8
ﾚｲﾔｰ1
370
    40
  6
Continuous
 62
     7
100
AcDbMText
 10
8111.772841
 20
-274.212646
 30
0.0
 40
25.400001
 41
252.873511
 71
     1
 72
     1
  1
カチオン電着塗装　
  7
Style1
 11
1.0
 21
0.0
 31
0.0
 73
     1
 44
1.0
  0
MTEXT
  5
433
100
AcDbEntity
  8
ﾚｲﾔｰ1
370
    40
  6
Continuous
 62
     7
100
AcDbMText
 10
8011.204038
 20
-300.244376
 30
0.0
 40
25.400001
 41
161.356824
 71
     1
 72
     1
  1
対応VESA規格
  7
Style1
 73
     1
 44
1.0
  0
MTEXT
  5
434
100
AcDbEntity
  8
ﾚｲﾔｰ1
370
    40
  6
Continuous
 62
     7
100
AcDbMText
 10
8011.204038
 20
-335.809406
 30
0.0
 40
25.400001
 41
125.236949
 71
     1
 72
     1
  1
品　名
  7
Style1
 11
1.0
 21
0.0
 31
0.0
 73
     1
 44
1.0
  0
MTEXT
  5
435
100
AcDbEntity
  8
ﾚｲﾔｰ1
370
    40
  6
Continuous
 62
     7
100
AcDbMText
 10
8011.204038
 20
-370.84552
 30
0.0
 40
25.400001
 41
125.236949
 71
     1
 72
     1
  1
型　番
  7
Style1
 11
1.0
 21
0.0
 31
0.0
 73
     1
 44
1.0
  0
MTEXT
  5
436
100
AcDbEntity
  8
ﾚｲﾔｰ1
370
    40
  6
Continuous
 62
     7
100
AcDbMText
 10
8111.772841
 20
-221.091354
 30
0.0
 40
25.400001
 41
564.426916
 71
     1
 72
     1
  1
STKMR□30ｘ20ｘｔ1.2 / SPHC・ｔ2.3・ｔ1.6
  7
Style1
 73
     1
 44
1.0
  0
LINE
  5
437
100
AcDbEntity
  8
ﾚｲﾔｰ1
370
    40
  6
Continuous
 62
     7
100
AcDbLine
 10
8007.034135
 20
-273.632323
 30
0.0
 11
8675.619435
 21
-273.632323
 31
0.0
  0
LINE
  5
438
100
AcDbEntity
  8
ﾚｲﾔｰ1
370
    40
  6
Continuous
 62
     7
100
AcDbLine
 10
8007.034135
 20
-247.071677
 30
0.0
 11
8675.619435
 21
-247.071677
 31
0.0
  0
MTEXT
  5
439
100
AcDbEntity
  8
ﾚｲﾔｰ1
370
    18
  6
Continuous
 62
     5
100
AcDbMText
 10
8120.60779
 20
508.805452
 30
0.0
 40
25.4
 41
254.649386
 71
     1
 72
     1
  1
背面：STB固定金具
  7
Style1
 73
     1
 44
1.0
  0
LINE
  5
43A
100
AcDbEntity
  8
ﾚｲﾔｰ1
370
     5
  6
Continuous
 62
     5
100
AcDbLine
 10
8349.77003
 20
481.288786
 30
0.0
 11
8118.491124
 21
481.288786
 31
0.0
  0
CIRCLE
  5
43B
100
AcDbEntity
  8
ﾚｲﾔｰ1
370
    18
  6
Continuous
 62
     7
100
AcDbCircle
 10
6883.444557
 20
-8.198635
 30
0.0
 40
5.0
  0
CIRCLE
  5
43C
100
AcDbEntity
  8
ﾚｲﾔｰ1
370
    18
  6
Continuous
 62
     7
100
AcDbCircle
 10
6883.444557
 20
-8.198635
 30
0.0
 40
1.5
  0
LINE
  5
43D
100
AcDbEntity
  8
ﾚｲﾔｰ1
370
    18
  6
Continuous
 62
     7
100
AcDbLine
 10
6868.444557
 20
-11.198635
 30
0.0
 11
6868.444557
 21
34.801365
 31
0.0
  0
ARC
  5
43E
100
AcDbEntity
  8
ﾚｲﾔｰ1
370
    18
  6
Continuous
 62
     7
100
AcDbCircle
 10
6872.444557
 20
-11.198635
 30
0.0
 40
4.0
210
0.0
220
0.0
230
1.0
100
AcDbArc
 50
180.0
 51
-90.0
  0
LINE
  5
43F
100
AcDbEntity
  8
ﾚｲﾔｰ1
370
    18
  6
Continuous
 62
     7
100
AcDbLine
 10
6674.35424
 20
-16.498638
 30
0.0
 11
6674.35424
 21
11.801365
 31
0.0
  0
LINE
  5
440
100
AcDbEntity
  8
ﾚｲﾔｰ1
370
    18
  6
Continuous
 62
     7
100
AcDbLine
 10
6609.749943
 20
-14.020715
 30
0.0
 11
6609.749943
 21
14.279288
 31
0.0
  0
INSERT
  5
448
100
AcDbEntity
  8
ﾚｲﾔｰ1
370
    40
  6
PHANTOM2
 62
     7
100
AcDbBlockReference
  2
C15
 10
0.0
 20
0.0
 30
0.0
  0
LINE
  5
449
100
AcDbEntity
  8
レイヤー 1
370
    18
  6
Continuous
 62
     7
100
AcDbLine
 10
7368.444557
 20
-78.198635
 30
0.0
 11
7368.444557
 21
846.801365
 31
0.0
  0
LINE
  5
44A
100
AcDbEntity
  8
レイヤー 1
370
    18
  6
Continuous
 62
     7
100
AcDbLine
 10
7338.444557
 20
38.801365
 30
0.0
 11
7338.444557
 21
577.750255
 31
0.0
  0
LINE
  5
44B
100
AcDbEntity
  8
レイヤー 1
370
    18
  6
Continuous
 62
     7
100
AcDbLine
 10
6672.05424
 20
-78.198635
 30
0.0
 11
6672.05424
 21
846.801365
 31
0.0
  0
LINE
  5
44C
100
AcDbEntity
  8
レイヤー 1
370
    18
  6
Continuous
 62
     7
100
AcDbLine
 10
6868.444557
 20
-78.198635
 30
0.0
 11
6868.444557
 21
846.801365
 31
0.0
  0
DIMENSION
  5
459
100
AcDbEntity
  8
寸法線
370
     5
  6
Continuous
 62
     5
100
AcDbDimension
  2
*D20
 10
6516.639043
 20
850.001365
 30
0.0
 11
6516.639043
 21
379.904392
 31
0.0
 71
     5
 72
     1
 41
1.0
 42
0.0
  3
DS1
100
AcDbAlignedDimension
 13
6559.134355
 23
-90.192581
 33
0.0
 14
6559.134355
 24
850.001365
 34
0.0
 50
90.0
100
AcDbRotatedDimension
  0
LINE
  5
45A
100
AcDbEntity
  8
レイヤー 1
370
    18
  6
Continuous
 62
     7
100
AcDbLine
 10
6612.049943
 20
-77.720712
 30
0.0
 11
6612.049943
 21
612.279288
 31
0.0
  0
LINE
  5
45B
100
AcDbEntity
  8
ﾚｲﾔｰ1
370
    18
  6
Continuous
 62
     7
100
AcDbLine
 10
6652.050471
 20
235.812443
 30
0.0
 11
6652.050471
 21
398.300533
 31
0.0
  0
LINE
  5
45C
100
AcDbEntity
  8
ﾚｲﾔｰ1
370
    18
  6
Continuous
 62
     7
100
AcDbLine
 10
6672.050468
 20
235.824325
 30
0.0
 11
6672.050468
 21
398.312415
 31
0.0
  0
LINE
  5
45D
100
AcDbEntity
  8
レイヤー 1
370
    18
  6
Continuous
 62
     7
100
AcDbLine
 10
6898.444557
 20
38.801365
 30
0.0
 11
6898.444557
 21
577.750255
 31
0.0
  0
LINE
  5
45E
100
AcDbEntity
  8
レイヤー 1
370
    18
  6
Continuous
 62
     7
100
AcDbLine
 10
6632.049943
 20
-77.720712
 30
0.0
 11
6632.161285
 21
574.801365
 31
0.0
  0
ELLIPSE
  5
45F
100
AcDbEntity
  8
ﾚｲﾔｰ1
370
    18
  6
Continuous
 62
     7
100
AcDbEllipse
 10
8057.863933
 20
388.75501
 30
0.0
 11
9.9999982354675776
 21
-0.0059406182823409
 31
0.0
210
0.0
220
0.0
230
1.0
 40
1.0
 41
-1.5707963267948966
 42
1.5690095798395585
  0
LINE
  5
460
100
AcDbEntity
  8
ﾚｲﾔｰ1
370
     5
  6
Continuous
 62
     5
100
AcDbLine
 10
7666.810134
 20
779.422131
 30
0.0
 11
7666.810134
 21
354.635417
 31
0.0
  0
LINE
  5
461
100
AcDbEntity
  8
ﾚｲﾔｰ1
370
    18
  6
Continuous
 62
     7
100
AcDbLine
 10
8057.857992
 20
378.755012
 30
0.0
 11
7895.358021
 21
378.851547
 31
0.0
  0
LINE
  5
462
100
AcDbEntity
  8
レイヤー 1
370
    18
  6
Continuous
 62
     7
100
AcDbLine
 10
7738.606321
 20
-61.236577
 30
0.0
 11
8024.447817
 21
818.490449
 31
0.0
  0
ARC
  5
463
100
AcDbEntity
  8
ﾚｲﾔｰ1
370
    18
  6
Continuous
 62
     7
100
AcDbCircle
 10
7895.363962
 20
388.851545
 30
0.0
 40
10.0
100
AcDbArc
 50
89.965963
 51
-90.034036
  0
LINE
  5
464
100
AcDbEntity
  8
レイヤー 1
370
    18
  6
Continuous
 62
     7
100
AcDbLine
 10
7757.627446
 20
-67.416934
 30
0.0
 11
7902.627897
 21
378.847228
 31
0.0
  0
MTEXT
  5
465
100
AcDbEntity
  8
ﾚｲﾔｰ1
370
     5
  6
Continuous
 62
     5
100
AcDbMText
 10
7637.410135
 20
272.085419
 30
0.0
 40
25.4
 41
165.744913
 71
     1
 72
     1
  1
画面中心≒850
  7
Style1
 11
0.0
 21
1.0
 31
0.0
 73
     1
 44
1.0
  0
LINE
  5
466
100
AcDbEntity
  8
レイヤー 1
370
    18
  6
Continuous
 62
     7
100
AcDbLine
 10
8222.923976
 20
-67.959352
 30
0.0
 11
8051.063497
 21
378.759048
 31
0.0
  0
LINE
  5
467
100
AcDbEntity
  8
レイヤー 1
370
    18
  6
Continuous
 62
     7
100
AcDbLine
 10
8241.590248
 20
-60.778106
 30
0.0
 11
8002.015535
 21
561.950476
 31
0.0
  0
LINE
  5
468
100
AcDbEntity
  8
ﾚｲﾔｰ1
370
     5
  6
Continuous
 62
     5
100
AcDbLine
 10
8204.761836
 20
263.688818
 30
0.0
 11
8066.930144
 21
384.535553
 31
0.0
  0
SOLID
  5
469
100
AcDbEntity
  8
ﾚｲﾔｰ1
 62
     5
100
AcDbTrace
 10
8088.931693
 20
373.224856
 30
0.0
 11
8066.930144
 21
384.535553
 31
0.0
 12
8066.930144
 22
384.535553
 32
0.0
 13
8081.020594
 23
364.201857
 33
0.0
  0
LINE
  5
46A
100
AcDbEntity
  8
ﾚｲﾔｰ1
370
    18
  6
Continuous
 62
     7
100
AcDbLine
 10
7118.444557
 20
-18.498635
 30
0.0
 11
6898.944557
 21
-18.498635
 31
0.0
  0
LINE
  5
46B
100
AcDbEntity
  8
ﾚｲﾔｰ1
370
    18
  6
Continuous
 62
     7
100
AcDbLine
 10
7118.444557
 20
42.101365
 30
0.0
 11
6898.944557
 21
42.101365
 31
0.0
  0
DIMENSION
  5
478
100
AcDbEntity
  8
寸法線
370
     5
  6
Continuous
 62
     5
100
AcDbDimension
  2
*D21
 10
6868.444557
 20
-154.569052
 30
0.0
 11
7118.444557
 21
-154.569052
 31
0.0
 71
     5
 72
     1
 41
1.0
 42
0.0
  3
DS1
100
AcDbAlignedDimension
 13
7368.444557
 23
-78.198635
 33
0.0
 14
6868.444557
 24
-63.055062
 34
0.0
 50
180.0
100
AcDbRotatedDimension
  0
LINE
  5
479
100
AcDbEntity
  8
ﾚｲﾔｰ1
370
    18
  6
Continuous
 62
     7
100
AcDbLine
 10
7028.444557
 20
590.101365
 30
0.0
 11
7002.444557
 21
590.101365
 31
0.0
  0
ENDSEC
  0
SECTION
  2
OBJECTS
  0
DICTIONARY
  5
19
100
AcDbDictionary
280
     0
281
     1
  3
ACAD_GROUP
350
1A
  3
ACAD_MLINESTYLE
350
1B
  3
ACAD_LAYOUT
350
1E
  3
ACAD_PLOTSETTINGS
350
22
  3
ACAD_PLOTSTYLENAME
350
1F
  3
ACAD_WIPEOUT_VARS
350
23
  0
DICTIONARY
  5
1A
102
{ACAD_REACTORS
330
19
102
}
100
AcDbDictionary
280
     0
281
     1
  0
DICTIONARY
  5
1B
102
{ACAD_REACTORS
330
19
102
}
100
AcDbDictionary
280
     0
281
     1
  3
Standard
350
1C
  0
MLINESTYLE
  5
1C
102
{ACAD_REACTORS
330
1B
102
}
100
AcDbMlineStyle
  2
Standard
 70
     0
  3

 62
     0
 51
90.0
 52
90.0
 71
     2
 49
0.5
 62
   256
  6
BYLAYER
 49
-0.5
 62
   256
  6
BYLAYER
  0
ACDBDICTIONARYWDFLT
  5
1F
102
{ACAD_REACTORS
330
19
102
}
100
AcDbDictionary
281
     1
  3
Normal
350
1D
100
AcDbDictionaryWithDefault
340
1D
  0
ACDBPLACEHOLDER
  5
1D
102
{ACAD_REACTORS
330
1F
102
}
  0
LAYOUT
  5
20
102
{ACAD_REACTORS
330
1E
102
}
100
AcDbPlotSettings
  1

  2

  4

  6

 40
0.0
 41
0.0
 42
0.0
 43
0.0
 44
0.0
 45
0.0
 46
0.0
 47
0.0
 48
0.0
 49
0.0
140
0.0
141
0.0
142
1.0
143
1.0
 70
  1024
 72
     0
 73
     0
 74
     0
  7

 75
     0
147
1.0
148
0.0
149
0.0
100
AcDbLayout
  1
Model
 70
     0
 71
     0
 10
0.0
 20
0.0
 11
0.0
 21
0.0
 12
0.0
 22
0.0
 32
0.0
 14
0.0
 24
0.0
 34
0.0
 15
0.0
 25
0.0
 35
0.0
146
0.0
 13
0.0
 23
0.0
 33
0.0
 16
0.0
 26
0.0
 36
0.0
 17
0.0
 27
0.0
 37
0.0
 76
     0
330
A
331
0
345
0
346
0
  0
LAYOUT
  5
21
102
{ACAD_REACTORS
330
1E
102
}
100
AcDbPlotSettings
  1

  2

  4

  6

 40
0.0
 41
0.0
 42
0.0
 43
0.0
 44
0.0
 45
0.0
 46
0.0
 47
0.0
 48
0.0
 49
0.0
140
0.0
141
0.0
142
1.0
143
1.0
 70
     0
 72
     0
 73
     0
 74
     0
  7

 75
     0
147
1.0
148
0.0
149
0.0
100
AcDbLayout
  1
Layout1
 70
     0
 71
     0
 10
0.0
 20
0.0
 11
0.0
 21
0.0
 12
0.0
 22
0.0
 32
0.0
 14
0.0
 24
0.0
 34
0.0
 15
0.0
 25
0.0
 35
0.0
146
0.0
 13
0.0
 23
0.0
 33
0.0
 16
0.0
 26
0.0
 36
0.0
 17
0.0
 27
0.0
 37
0.0
 76
     0
330
B
331
0
345
0
346
0
  0
DICTIONARY
  5
1E
102
{ACAD_REACTORS
330
19
102
}
100
AcDbDictionary
280
     0
281
     1
  3
Layout1
350
21
  3
Model
350
20
  0
DICTIONARY
  5
22
102
{ACAD_REACTORS
330
19
102
}
100
AcDbDictionary
280
     0
281
     1
  0
WIPEOUTVARIABLES
  5
23
100
AcDbWipeoutVariables
 70
     1
  0
ENDSEC
  0
EOF
